<?xml version="1.0" standalone="no"?>
<!DOCTYPE svg PUBLIC "-//W3C//DTD SVG 1.1//EN" "http://www.w3.org/Graphics/SVG/1.1/DTD/svg11.dtd" >
<svg xmlns="http://www.w3.org/2000/svg" xmlns:xlink="http://www.w3.org/1999/xlink" version="1.1">
<metadata>
Created by FontForge 20190801 at Fri Dec  9 13:44:06 2005
 By root
Copyright (c) Mark Simonson, 2005. All rights reserved.
</metadata>
<defs>
<font id="ProximaNova-BoldIt" horiz-adv-x="398" >
  <font-face 
    font-family="Proxima Nova Rg"
    font-weight="700"
    font-style="italic"
    font-stretch="normal"
    units-per-em="1000"
    panose-1="2 0 5 6 3 0 0 2 0 4"
    ascent="790"
    descent="-210"
    x-height="483"
    cap-height="667"
    bbox="-226 -282 1160 903"
    underline-thickness="20"
    underline-position="-133"
    stemh="21"
    stemv="146"
    unicode-range="U+0020-FB04"
  />
<missing-glyph horiz-adv-x="483" 
d="M437 -90h-351v842h351v-842zM405 -60v782h-288v-782h288z" />
    <glyph glyph-name="fi" unicode="fi" horiz-adv-x="580" 
d="M165 0h-127l82 372h-80l25 111h79l4 20c24 111 85 174 181 174c39 0 77 -8 108 -27l-46 -91c-12 10 -29 14 -46 14c-37 0 -57 -23 -69 -70l-5 -20h99l-25 -111h-98zM525 535c-39 0 -68 29 -68 65c0 55 47 86 85 86c40 0 69 -29 69 -65c0 -55 -47 -86 -86 -86zM463 0h-127
l107 483h127z" />
    <glyph glyph-name="fl" unicode="fl" horiz-adv-x="580" 
d="M165 0h-127l82 372h-80l25 111h79l4 20c24 111 85 174 181 174c39 0 77 -8 108 -27l-46 -91c-12 10 -29 14 -46 14c-37 0 -57 -23 -69 -70l-5 -20h99l-25 -111h-98zM463 0h-127l147 667h127z" />
    <glyph glyph-name="f_b" unicode="fb" horiz-adv-x="913" 
d="M165 0h-127l82 372h-80l25 111h79l4 20c24 111 85 174 181 174c39 0 77 -8 108 -27l-46 -91c-12 10 -29 14 -46 14c-37 0 -57 -23 -69 -70l-5 -20h99l-25 -111h-98zM631 -12c-65 0 -122 28 -154 76l-14 -64h-127l147 667h127l-54 -244c41 48 88 72 146 72
c109 0 183 -72 183 -200c0 -145 -90 -307 -254 -307zM610 101c84 0 142 79 142 168c0 69 -45 113 -107 113c-44 0 -84 -25 -110 -58l-38 -167c21 -33 62 -56 113 -56z" />
    <glyph glyph-name="f_h" unicode="fh" horiz-adv-x="907" 
d="M165 0h-127l82 372h-80l25 111h79l4 20c24 111 85 174 181 174c39 0 77 -8 108 -27l-46 -91c-12 10 -29 14 -46 14c-37 0 -57 -23 -69 -70l-5 -20h99l-25 -111h-98zM790 0h-127l64 293c2 8 4 21 4 28c0 44 -36 61 -83 61c-43 0 -85 -29 -113 -57l-71 -325h-128l147 667
h128l-55 -246c38 36 90 74 161 74c93 0 151 -48 151 -123c0 -10 -3 -30 -5 -40z" />
    <glyph glyph-name="f_k" unicode="fk" horiz-adv-x="863" 
d="M165 0h-127l82 372h-80l25 111h79l4 20c24 111 85 174 181 174c39 0 77 -8 108 -27l-46 -91c-12 10 -29 14 -46 14c-37 0 -57 -23 -69 -70l-5 -20h99l-25 -111h-98zM808 0h-154l-89 189l-75 -65l-27 -124h-127l147 667h127l-87 -391l225 207h161l-240 -219z" />
    <glyph glyph-name="f_f_j" unicode="ffj" horiz-adv-x="907" 
d="M165 0h-127l82 372h-80l25 111h79l4 20c22 92 70 174 181 174c55 0 102 -15 134 -48l-64 -75c-14 13 -34 19 -54 19c-39 0 -57 -24 -69 -70l-5 -20h99l-25 -111h-98zM492 0h-127l82 372h-80l25 111h79l4 20c24 111 85 174 181 174c39 0 77 -8 108 -27l-46 -91
c-12 10 -29 14 -46 14c-37 0 -57 -23 -69 -70l-5 -20h99l-25 -111h-98zM602 -196c-62 0 -105 13 -134 41l53 90c15 -18 37 -27 62 -27c38 0 65 25 77 79l111 496h127l-110 -496c-24 -110 -76 -183 -186 -183zM853 535c-39 0 -68 29 -68 65c0 55 47 86 85 86
c40 0 69 -29 69 -65c0 -55 -47 -86 -86 -86z" />
    <glyph glyph-name="f_j" unicode="fj" horiz-adv-x="580" 
d="M165 0h-127l82 372h-80l25 111h79l4 20c24 111 85 174 181 174c39 0 77 -8 108 -27l-46 -91c-12 10 -29 14 -46 14c-37 0 -57 -23 -69 -70l-5 -20h99l-25 -111h-98zM274 -196c-62 0 -105 13 -134 41l53 90c15 -18 37 -27 62 -27c38 0 65 25 77 79l111 496h127l-110 -496
c-24 -110 -76 -183 -186 -183zM525 535c-39 0 -68 29 -68 65c0 55 47 86 85 86c40 0 69 -29 69 -65c0 -55 -47 -86 -86 -86z" />
    <glyph glyph-name="f_f" unicode="ff" horiz-adv-x="655" 
d="M165 0h-127l82 372h-80l25 111h79l4 20c22 92 70 174 181 174c55 0 102 -15 134 -48l-64 -75c-14 13 -34 19 -54 19c-39 0 -57 -24 -69 -70l-5 -20h99l-25 -111h-98zM492 0h-127l82 372h-80l25 111h79l4 20c22 92 70 174 181 174c55 0 102 -15 134 -48l-64 -75
c-14 13 -34 19 -54 19c-39 0 -57 -24 -69 -70l-5 -20h99l-25 -111h-98z" />
    <glyph glyph-name="f_f_i" unicode="ffi" horiz-adv-x="907" 
d="M165 0h-127l82 372h-80l25 111h79l4 20c22 92 70 174 181 174c55 0 102 -15 134 -48l-64 -75c-14 13 -34 19 -54 19c-39 0 -57 -24 -69 -70l-5 -20h99l-25 -111h-98zM492 0h-127l82 372h-80l25 111h79l4 20c24 111 85 174 181 174c39 0 77 -8 108 -27l-46 -91
c-12 10 -29 14 -46 14c-37 0 -57 -23 -69 -70l-5 -20h99l-25 -111h-98zM853 535c-39 0 -68 29 -68 65c0 55 47 86 85 86c40 0 69 -29 69 -65c0 -55 -47 -86 -86 -86zM791 0h-127l107 483h127z" />
    <glyph glyph-name="f_f_l" unicode="ffl" horiz-adv-x="907" 
d="M165 0h-127l82 372h-80l25 111h79l4 20c22 92 70 174 181 174c55 0 102 -15 134 -48l-64 -75c-14 13 -34 19 -54 19c-39 0 -57 -24 -69 -70l-5 -20h99l-25 -111h-98zM492 0h-127l82 372h-80l25 111h79l4 20c24 111 85 174 181 174c39 0 77 -8 108 -27l-46 -91
c-12 10 -29 14 -46 14c-37 0 -57 -23 -69 -70l-5 -20h99l-25 -111h-98zM791 0h-127l147 667h127z" />
    <glyph glyph-name=".notdef" horiz-adv-x="483" 
d="M437 -90h-351v842h351v-842zM405 -60v782h-288v-782h288z" />
    <glyph glyph-name="space" unicode=" " horiz-adv-x="257" 
 />
    <glyph glyph-name="exclam" unicode="!" horiz-adv-x="255" 
d="M178 218h-113l79 449h153zM82 -12c-41 0 -74 34 -74 75c0 48 41 88 89 88c41 0 74 -34 74 -75c0 -48 -41 -88 -89 -88z" />
    <glyph glyph-name="quotedbl" unicode="&#x22;" horiz-adv-x="406" 
d="M169 375h-56s8 202 9 222c1 46 35 80 79 80c33 0 61 -26 61 -62c0 -12 -5 -25 -7 -30c-6 -15 -86 -210 -86 -210zM351 375h-56s8 202 9 222c1 46 36 80 80 80c32 0 60 -26 60 -62c0 -12 -4 -25 -7 -30c-6 -15 -86 -210 -86 -210z" />
    <glyph glyph-name="numbersign" unicode="#" horiz-adv-x="618" 
d="M285 0h-95l95 170h-95l-94 -170h-94l95 170h-97l44 81h98l91 165h-97l42 80h100l94 171h94l-94 -171h94l94 171h95l-95 -171h97l-42 -80h-100l-92 -165h101l-43 -81h-103zM329 251l92 165h-94l-91 -165h93z" />
    <glyph glyph-name="dollar" unicode="$" horiz-adv-x="614" 
d="M311 -12h-8l-19 -88h-94l22 98c-88 18 -162 60 -203 115l88 105c32 -43 83 -77 143 -93l34 156c-85 32 -176 76 -176 179c0 110 97 217 261 217h4l20 91h94l-23 -102c69 -16 129 -50 171 -97l-89 -102c-29 34 -69 57 -111 70l-31 -140c87 -32 180 -77 180 -180
c0 -122 -98 -229 -263 -229zM423 189c0 26 -25 43 -62 59l-30 -134c65 3 92 42 92 75zM248 486c0 -24 24 -40 60 -56l27 122c-50 -1 -87 -31 -87 -66z" />
    <glyph glyph-name="percent" unicode="%" horiz-adv-x="758" 
d="M151 0h-75l573 667h76zM530 -12c-86 0 -160 53 -160 139c0 116 86 194 185 194c85 0 160 -53 160 -139c0 -115 -86 -194 -185 -194zM533 66c49 0 91 43 91 108c0 39 -30 68 -72 68c-50 0 -91 -43 -91 -107c0 -40 29 -69 72 -69zM242 345c-86 0 -160 52 -160 138
c0 116 86 194 185 194c85 0 160 -52 160 -138c0 -116 -86 -194 -185 -194zM245 423c49 0 91 43 91 107c0 40 -30 69 -72 69c-50 0 -92 -43 -92 -108c0 -39 30 -68 73 -68z" />
    <glyph glyph-name="ampersand" unicode="&#x26;" horiz-adv-x="647" 
d="M567 0h-152c-8 10 -18 23 -28 37c-51 -30 -106 -49 -166 -49c-121 0 -216 53 -216 176c0 129 92 184 191 221c-11 36 -17 71 -17 105c0 106 90 187 203 187c92 0 174 -45 174 -135c0 -117 -104 -157 -207 -193c11 -23 24 -46 37 -68c16 -29 30 -56 46 -81
c38 41 70 86 90 122l91 -57c-36 -51 -79 -105 -127 -151c24 -37 51 -73 81 -114zM242 88c29 0 60 11 90 29c-23 34 -44 68 -56 90c-17 32 -34 63 -48 94c-49 -27 -83 -63 -83 -122c0 -60 44 -91 97 -91zM307 491c0 -21 4 -43 11 -65c70 24 124 50 124 104
c0 37 -24 55 -55 55c-38 0 -80 -32 -80 -94z" />
    <glyph glyph-name="quoteright" unicode="&#x2019;" horiz-adv-x="255" 
d="M291 595c0 -76 -64 -159 -147 -200l-45 48c35 16 81 48 98 84c-3 -1 -8 -1 -11 -1c-33 0 -62 22 -62 65c0 47 44 86 89 86c41 0 78 -28 78 -82z" />
    <glyph glyph-name="parenleft" unicode="(" horiz-adv-x="297" 
d="M195 -146l-92 -53c-52 79 -80 193 -80 306c0 209 105 426 274 578l66 -68c-128 -154 -206 -344 -206 -545c0 -73 17 -155 38 -218z" />
    <glyph glyph-name="parenright" unicode=")" horiz-adv-x="298" 
d="M101 632l92 53c52 -79 80 -193 80 -306c0 -209 -105 -426 -274 -578l-66 68c128 154 206 344 206 545c0 73 -17 155 -38 218z" />
    <glyph glyph-name="asterisk" unicode="*" horiz-adv-x="351" 
d="M234 366h-65l31 114l-106 -48l-18 57l108 38l-86 60l43 50l79 -68l19 108h64l-31 -113l106 48l19 -58l-107 -38l85 -60l-44 -50l-79 68z" />
    <glyph glyph-name="plus" unicode="+" horiz-adv-x="504" 
d="M487 298h-180l-45 -203h-86l45 203h-180l17 79h180l43 196h87l-43 -196h180z" />
    <glyph glyph-name="comma" unicode="," horiz-adv-x="255" 
d="M174 69c0 -76 -64 -160 -147 -200l-45 47c36 17 82 49 98 84h-11c-32 0 -61 22 -61 65c0 47 44 86 89 86c40 0 77 -28 77 -82z" />
    <glyph glyph-name="hyphen" unicode="-" horiz-adv-x="300" 
d="M258 188h-240l23 108h240z" />
    <glyph glyph-name="period" unicode="." horiz-adv-x="257" 
d="M82 -12c-41 0 -74 34 -74 75c0 48 41 88 89 88c41 0 74 -34 74 -75c0 -48 -41 -88 -89 -88z" />
    <glyph glyph-name="slash" unicode="/" horiz-adv-x="329" 
d="M35 -20h-95l393 707h96z" />
    <glyph glyph-name="zero" unicode="0" horiz-adv-x="620" 
d="M284 -12c-145 0 -241 97 -241 269c0 216 135 420 332 420c145 0 240 -96 240 -268c0 -216 -134 -421 -331 -421zM297 114c111 0 174 173 174 302c0 79 -32 135 -110 135c-111 0 -174 -172 -174 -301c0 -79 32 -136 110 -136z" />
    <glyph glyph-name="one" unicode="1" horiz-adv-x="411" 
d="M291 0h-142l106 484l-135 -113l-63 85l257 211h124z" />
    <glyph glyph-name="two" unicode="2" horiz-adv-x="600" 
d="M495 0h-502l29 132c282 160 428 249 428 342c0 49 -50 78 -120 78c-73 0 -127 -27 -166 -60l-60 102c59 52 149 83 237 83c136 0 258 -67 258 -194c0 -131 -138 -245 -349 -358h272z" />
    <glyph glyph-name="three" unicode="3" horiz-adv-x="587" 
d="M279 -12c-122 0 -242 50 -292 139l95 86c42 -66 126 -99 196 -99c78 0 118 40 118 92c0 39 -30 70 -122 70c-28 0 -70 -1 -80 -2l28 128c11 -1 68 -1 94 -1c74 0 130 21 130 77c0 44 -49 73 -132 73c-57 0 -115 -17 -162 -54l-51 97c55 50 137 83 227 83
c159 0 264 -64 264 -174c0 -90 -93 -154 -180 -165c69 -17 125 -61 125 -146c0 -118 -115 -204 -258 -204z" />
    <glyph glyph-name="four" unicode="4" horiz-adv-x="597" 
d="M432 0h-142l30 138h-319l28 124l346 405h204l-89 -404h85l-27 -125h-86zM347 263l62 278l-242 -278h180z" />
    <glyph glyph-name="five" unicode="5" horiz-adv-x="608" 
d="M296 -12c-130 0 -223 47 -278 129l101 89c36 -58 99 -92 179 -92c78 0 126 49 126 109c0 57 -51 89 -126 89c-52 0 -85 -12 -122 -40l-92 37l79 358h458l-27 -125h-316l-35 -157c35 28 75 43 133 43c108 0 197 -67 197 -189c0 -136 -111 -251 -277 -251z" />
    <glyph glyph-name="six" unicode="6" horiz-adv-x="608" 
d="M301 -12c-164 0 -262 95 -262 258c0 216 128 431 359 431c98 0 172 -35 223 -90l-88 -101c-31 42 -85 65 -144 65c-98 0 -161 -82 -187 -164c-4 -9 -7 -19 -9 -26c36 37 103 70 173 70c119 0 212 -70 212 -184c0 -142 -125 -259 -277 -259zM301 114c73 0 128 52 128 115
c0 54 -57 88 -128 88c-47 0 -89 -20 -122 -50c-1 -8 -1 -25 -1 -35c0 -72 52 -118 123 -118z" />
    <glyph glyph-name="seven" unicode="7" horiz-adv-x="545" 
d="M225 0h-163l357 542h-329l27 125h501l-22 -99z" />
    <glyph glyph-name="eight" unicode="8" horiz-adv-x="606" 
d="M285 -12c-140 0 -270 54 -270 179c0 86 66 161 185 191c-54 24 -101 72 -101 134c0 131 138 185 262 185c127 0 260 -54 260 -171c0 -88 -69 -154 -173 -175c63 -33 111 -86 111 -151c0 -121 -132 -192 -274 -192zM337 399c77 5 131 34 131 80c0 41 -51 71 -116 71
c-59 0 -111 -28 -111 -75c0 -36 53 -66 96 -76zM292 114c61 0 124 32 124 81c0 44 -57 74 -106 86c-80 -4 -144 -36 -144 -88s52 -79 126 -79z" />
    <glyph glyph-name="nine" unicode="9" horiz-adv-x="608" 
d="M345 678c164 0 262 -95 262 -258c0 -216 -127 -431 -358 -431c-99 0 -173 35 -223 90l87 101c32 -42 86 -65 145 -65c97 0 160 82 187 164c4 9 7 19 8 26c-36 -37 -103 -70 -173 -70c-119 0 -211 70 -211 184c0 142 125 259 276 259zM345 552c-73 0 -128 -52 -128 -115
c0 -54 57 -88 129 -88c47 0 89 20 121 50c1 8 1 25 1 35c0 72 -52 118 -123 118z" />
    <glyph glyph-name="colon" unicode=":" horiz-adv-x="246" 
d="M82 -12c-41 0 -74 34 -74 75c0 48 41 88 89 88c41 0 74 -34 74 -75c0 -48 -41 -88 -89 -88zM156 328c-41 0 -73 34 -73 75c0 48 41 88 89 88c41 0 73 -34 73 -75c0 -48 -41 -88 -89 -88z" />
    <glyph glyph-name="semicolon" unicode=";" horiz-adv-x="255" 
d="M174 69c0 -76 -64 -160 -147 -200l-45 47c36 17 82 49 98 84h-11c-32 0 -61 22 -61 65c0 47 44 86 89 86c40 0 77 -28 77 -82zM156 328c-41 0 -73 34 -73 75c0 48 41 88 89 88c41 0 73 -34 73 -75c0 -48 -41 -88 -89 -88z" />
    <glyph glyph-name="less" unicode="&#x3c;" horiz-adv-x="504" 
d="M440 90l-402 199l21 92l490 199l-22 -98l-388 -152l321 -150z" />
    <glyph glyph-name="equal" unicode="=" horiz-adv-x="504" 
d="M507 389h-446l17 79h446zM466 201h-447l18 78h446z" />
    <glyph glyph-name="greater" unicode="&#x3e;" horiz-adv-x="504" 
d="M485 289l-491 -199l22 98l389 150l-322 152l20 90l402 -199z" />
    <glyph glyph-name="question" unicode="?" horiz-adv-x="456" 
d="M285 236l-116 -32c-11 20 -17 43 -17 70c0 147 194 144 194 225c0 32 -27 53 -81 53c-43 0 -87 -16 -122 -48l-60 98c63 53 133 75 203 75c116 0 211 -54 211 -148c0 -177 -223 -163 -223 -265c0 -7 3 -19 11 -28zM180 -12c-41 0 -74 34 -74 75c0 48 41 88 89 88
c41 0 73 -34 73 -75c0 -48 -40 -88 -88 -88z" />
    <glyph glyph-name="at" unicode="@" horiz-adv-x="783" 
d="M372 -70c-182 0 -317 137 -317 314c0 213 189 394 397 394c192 0 315 -139 315 -306c0 -168 -111 -247 -198 -247c-60 0 -90 36 -97 74l-1 6c-35 -49 -90 -80 -144 -80c-97 0 -155 71 -155 168c0 134 110 245 226 245c61 0 104 -29 125 -67l11 53h113l-51 -244
c-1 -5 -3 -18 -3 -24c0 -31 16 -45 37 -45c39 0 94 47 94 161c0 158 -107 267 -276 267c-189 0 -353 -166 -353 -353c0 -157 119 -278 282 -278c67 0 128 21 182 55l21 -30c-62 -40 -134 -63 -208 -63zM371 175c53 0 89 35 111 66l25 116c-10 22 -36 51 -81 51
c-80 0 -137 -72 -137 -145c0 -52 31 -88 82 -88z" />
    <glyph glyph-name="A" unicode="A" horiz-adv-x="684" 
d="M634 0h-154l-17 113h-286l-66 -113h-169l404 667h178zM452 238l-41 287l-167 -287h208z" />
    <glyph glyph-name="B" unicode="B" horiz-adv-x="663" 
d="M376 0h-364l147 667h324c116 0 181 -75 181 -160c0 -89 -71 -166 -152 -174c62 -16 96 -76 96 -134c0 -94 -65 -199 -232 -199zM422 402c69 0 90 41 90 80c0 34 -30 60 -67 60h-171l-31 -140h179zM366 125c64 0 100 40 100 87c0 38 -28 65 -73 65h-178l-33 -152h184z" />
    <glyph glyph-name="C" unicode="C" horiz-adv-x="687" 
d="M372 -12c-184 0 -328 117 -328 299c0 236 181 391 388 391c163 0 257 -88 296 -189l-136 -46c-26 71 -90 109 -167 109c-126 0 -232 -109 -232 -256c0 -104 72 -182 187 -182c57 0 119 30 157 77l110 -74c-77 -98 -188 -129 -275 -129z" />
    <glyph glyph-name="D" unicode="D" horiz-adv-x="718" 
d="M274 0h-262l147 667h258c148 0 289 -114 289 -286c0 -176 -118 -381 -432 -381zM274 542l-92 -417h118c161 0 259 113 259 246c0 97 -70 171 -168 171h-117z" />
    <glyph glyph-name="E" unicode="E" horiz-adv-x="583" 
d="M484 0h-472l147 667h472l-28 -125h-329l-31 -140h322l-27 -125h-323l-33 -152h329z" />
    <glyph glyph-name="F" unicode="F" horiz-adv-x="571" 
d="M154 0h-142l147 667h472l-28 -125h-329l-31 -140h322l-27 -125h-323z" />
    <glyph glyph-name="G" unicode="G" horiz-adv-x="720" 
d="M372 -12c-182 0 -328 115 -328 299c0 225 170 391 401 391c143 0 235 -80 275 -165l-130 -56c-23 55 -89 95 -165 95c-124 0 -232 -110 -232 -256c0 -101 70 -182 187 -182c56 0 100 22 133 51l18 80h-177l28 125h319l-58 -259c-65 -77 -161 -123 -271 -123z" />
    <glyph glyph-name="H" unicode="H" horiz-adv-x="731" 
d="M612 0h-143l62 281h-315l-62 -281h-142l147 667h142l-57 -262h314l58 262h143z" />
    <glyph glyph-name="I" unicode="I" horiz-adv-x="274" 
d="M154 0h-142l147 667h142z" />
    <glyph glyph-name="J" unicode="J" horiz-adv-x="486" 
d="M165 -12c-74 0 -151 24 -194 75l77 107c21 -33 61 -56 107 -56c65 0 104 43 118 107l98 446h143l-99 -448c-35 -157 -113 -231 -250 -231z" />
    <glyph glyph-name="K" unicode="K" horiz-adv-x="636" 
d="M583 0h-167l-146 273l-70 -68l-46 -205h-142l147 667h142l-63 -286l291 286h183l-334 -313z" />
    <glyph glyph-name="L" unicode="L" horiz-adv-x="515" 
d="M431 0h-425l147 667h143l-120 -542h282z" />
    <glyph glyph-name="M" unicode="M" horiz-adv-x="855" 
d="M735 0h-143l106 481l-294 -481h-62l-82 481l-106 -481h-142l147 667h194l70 -417l254 417h205z" />
    <glyph glyph-name="N" unicode="N" horiz-adv-x="729" 
d="M609 0h-137l-220 442l-98 -442h-142l147 667h146l214 -425l95 425h142z" />
    <glyph glyph-name="O" unicode="O" horiz-adv-x="765" 
d="M372 -12c-185 0 -328 116 -328 299c0 218 168 391 388 391c184 0 328 -115 328 -298c0 -218 -168 -392 -388 -392zM380 114c129 0 231 113 231 256c0 112 -81 182 -188 182c-129 0 -230 -113 -230 -256c0 -112 80 -182 187 -182z" />
    <glyph glyph-name="P" unicode="P" horiz-adv-x="625" 
d="M154 0h-142l147 667h305c107 0 186 -84 186 -185c0 -99 -67 -244 -276 -244h-167zM382 363h1c71 0 119 45 119 104c0 44 -34 75 -83 75h-145l-40 -179h148z" />
    <glyph glyph-name="Q" unicode="Q" horiz-adv-x="765" 
d="M372 -12c-185 0 -328 116 -328 299c0 218 168 391 388 391c184 0 328 -115 328 -298c0 -128 -58 -241 -150 -312l34 -54l-114 -55l-32 49c-39 -12 -82 -20 -126 -20zM380 114c16 0 33 2 48 5l-57 92l114 55l53 -84c45 46 73 113 73 188c0 112 -81 182 -188 182
c-129 0 -230 -113 -230 -256c0 -112 80 -182 187 -182z" />
    <glyph glyph-name="R" unicode="R" horiz-adv-x="643" 
d="M553 0h-158l-79 237h-110l-52 -237h-142l147 667h285c108 0 206 -72 206 -188c0 -120 -82 -212 -190 -232zM382 362h1c74 0 119 43 119 103c0 45 -41 77 -85 77h-143l-40 -180h148z" />
    <glyph glyph-name="S" unicode="S" horiz-adv-x="600" 
d="M301 -12c-131 0 -246 51 -302 125l88 105c46 -62 133 -104 225 -104c72 0 101 41 101 75c0 94 -325 76 -325 271c0 110 97 217 261 217c106 0 206 -39 266 -108l-89 -102c-50 58 -131 85 -199 85c-51 0 -89 -30 -89 -66c0 -87 326 -76 326 -269
c0 -122 -98 -229 -263 -229z" />
    <glyph glyph-name="T" unicode="T" horiz-adv-x="582" 
d="M309 0h-143l120 542h-195l27 125h532l-27 -125h-195z" />
    <glyph glyph-name="U" unicode="U" horiz-adv-x="734" 
d="M356 -12c-191 0 -290 94 -290 233c0 13 3 35 5 46l88 400h144l-87 -397c-2 -6 -4 -19 -4 -33c1 -67 50 -124 144 -124c102 0 152 64 173 157l87 397h145l-89 -400c-35 -162 -119 -279 -316 -279z" />
    <glyph glyph-name="V" unicode="V" horiz-adv-x="684" 
d="M377 0h-178l-110 667h154l72 -512l297 512h169z" />
    <glyph glyph-name="W" unicode="W" horiz-adv-x="918" 
d="M673 0h-151l-16 458l-217 -458h-151l-44 667h156l10 -482l233 482h111l20 -482l223 482h163z" />
    <glyph glyph-name="X" unicode="X" horiz-adv-x="668" 
d="M617 0h-161l-121 237l-214 -237h-178l322 351l-160 316h161l109 -221l195 221h179l-303 -333z" />
    <glyph glyph-name="Y" unicode="Y" horiz-adv-x="645" 
d="M340 0h-142l60 273l-169 394h154l106 -267l224 267h169l-341 -394z" />
    <glyph glyph-name="Z" unicode="Z" horiz-adv-x="592" 
d="M496 0h-508l25 115l401 427h-306l27 125h501l-24 -114l-403 -428h315z" />
    <glyph glyph-name="bracketleft" unicode="[" horiz-adv-x="280" 
d="M166 -190h-216l193 868h216l-19 -85h-124l-155 -698h124z" />
    <glyph glyph-name="backslash" unicode="\" horiz-adv-x="329" 
d="M178 -20l-80 707h92l80 -707h-92z" />
    <glyph glyph-name="bracketright" unicode="]" horiz-adv-x="280" 
d="M136 -190h-214l18 85h124l155 698h-124l19 85h215z" />
    <glyph glyph-name="asciicircum" unicode="^" horiz-adv-x="441" 
d="M441 333h-89l-53 247l-162 -247h-99l230 334h93z" />
    <glyph glyph-name="underscore" unicode="_" horiz-adv-x="564" 
d="M485 -125h-569l19 85h569z" />
    <glyph glyph-name="quoteleft" unicode="&#x2018;" horiz-adv-x="255" 
d="M91 477c0 77 64 160 147 201l45 -48c-36 -16 -82 -48 -98 -84c3 1 8 1 11 1c32 0 61 -22 61 -65c0 -47 -44 -86 -89 -86c-40 0 -77 28 -77 81z" />
    <glyph glyph-name="a" unicode="a" horiz-adv-x="586" 
d="M281 495c65 0 122 -28 154 -76l13 64h128l-107 -483h-128l14 60c-41 -48 -87 -72 -145 -72c-109 0 -184 72 -184 200c0 146 91 307 255 307zM301 382c-83 0 -142 -79 -142 -168c0 -69 46 -113 107 -113c45 0 85 25 111 58l37 167c-21 33 -62 56 -113 56z" />
    <glyph glyph-name="b" unicode="b" horiz-adv-x="586" 
d="M304 -12c-65 0 -122 28 -154 76l-14 -64h-127l147 667h127l-54 -244c41 48 88 72 146 72c109 0 183 -72 183 -200c0 -145 -90 -307 -254 -307zM283 101c84 0 142 79 142 168c0 69 -45 113 -107 113c-44 0 -84 -25 -110 -58l-38 -167c21 -33 62 -56 113 -56z" />
    <glyph glyph-name="c" unicode="c" horiz-adv-x="499" 
d="M265 -12c-144 0 -237 88 -237 220c0 159 123 287 281 287c99 0 163 -40 196 -95l-95 -73c-20 34 -57 55 -101 55c-91 0 -152 -77 -152 -167c0 -73 54 -114 121 -114c41 0 77 20 101 48l69 -84c-36 -39 -98 -77 -183 -77z" />
    <glyph glyph-name="d" unicode="d" horiz-adv-x="586" 
d="M281 495c65 0 122 -28 154 -76l54 248h128l-148 -667h-128l14 60c-41 -48 -87 -72 -145 -72c-109 0 -184 72 -184 200c0 146 91 307 255 307zM301 382c-83 0 -142 -79 -142 -168c0 -69 46 -113 107 -113c45 0 85 25 111 58l37 167c-21 33 -62 56 -113 56z" />
    <glyph glyph-name="e" unicode="e" horiz-adv-x="553" 
d="M278 -12c-152 0 -250 82 -250 217c0 157 118 290 279 290c124 0 217 -80 217 -215c0 -29 -6 -65 -10 -80h-359v-12c0 -41 43 -96 133 -96c43 0 92 12 122 35l39 -89c-47 -32 -111 -50 -171 -50zM409 288h1c1 2 1 8 1 10c0 49 -36 93 -112 93c-69 0 -120 -50 -130 -103
h240z" />
    <glyph glyph-name="f" unicode="f" horiz-adv-x="327" 
d="M165 0h-127l82 372h-80l25 111h79l4 20c22 92 70 174 181 174c55 0 102 -15 134 -48l-64 -75c-14 13 -34 19 -54 19c-39 0 -57 -24 -69 -70l-5 -20h99l-25 -111h-98z" />
    <glyph glyph-name="g" unicode="g" horiz-adv-x="585" 
d="M212 -196c-95 0 -175 22 -234 84l75 84c31 -42 94 -64 157 -64c59 0 117 26 137 124l10 46c-36 -46 -89 -74 -148 -74c-97 0 -182 57 -182 196c0 147 93 295 250 295c59 0 121 -29 156 -76l15 64h127l-100 -451c-41 -182 -159 -228 -263 -228zM269 117c42 0 83 24 109 56
l34 150c-23 37 -67 59 -118 59c-79 0 -135 -70 -135 -157c0 -65 44 -108 110 -108z" />
    <glyph glyph-name="h" unicode="h" horiz-adv-x="580" 
d="M463 0h-127l64 293c2 8 4 21 4 28c0 44 -36 61 -83 61c-43 0 -85 -29 -113 -57l-71 -325h-128l147 667h128l-55 -246c38 36 90 74 161 74c93 0 151 -48 151 -123c0 -10 -3 -30 -5 -40z" />
    <glyph glyph-name="i" unicode="i" horiz-adv-x="253" 
d="M198 535c-39 0 -68 29 -68 65c0 55 47 86 85 86c40 0 69 -29 69 -65c0 -55 -47 -86 -86 -86zM136 0h-127l107 483h127z" />
    <glyph glyph-name="j" unicode="j" horiz-adv-x="253" 
d="M-53 -196c-62 0 -105 13 -134 41l53 90c15 -18 37 -27 62 -27c38 0 65 25 77 79l111 496h127l-110 -496c-24 -110 -76 -183 -186 -183zM198 535c-39 0 -68 29 -68 65c0 55 47 86 85 86c40 0 69 -29 69 -65c0 -55 -47 -86 -86 -86z" />
    <glyph glyph-name="k" unicode="k" horiz-adv-x="536" 
d="M481 0h-154l-89 189l-75 -65l-27 -124h-127l147 667h127l-87 -391l225 207h161l-240 -219z" />
    <glyph glyph-name="l" unicode="l" horiz-adv-x="253" 
d="M136 0h-127l147 667h127z" />
    <glyph glyph-name="m" unicode="m" horiz-adv-x="853" 
d="M736 0h-128l66 296c1 5 3 17 3 25c0 40 -32 61 -69 61c-39 0 -76 -28 -100 -56l-72 -326h-128l66 296c2 10 4 18 4 27c-1 35 -26 59 -71 59c-38 0 -75 -29 -99 -56l-72 -326h-127l107 483h127l-14 -62c27 28 76 74 147 74c95 0 136 -69 136 -94v-1c38 46 90 95 164 95
c73 0 139 -43 139 -123c0 -13 -4 -32 -6 -40z" />
    <glyph glyph-name="n" unicode="n" horiz-adv-x="579" 
d="M463 0h-128l65 293c2 9 4 19 4 28c0 44 -36 61 -83 61c-43 0 -85 -29 -113 -56l-72 -326h-127l107 483h127l-14 -62c38 36 90 74 161 74c93 0 151 -48 151 -123c0 -9 -3 -30 -5 -40z" />
    <glyph glyph-name="o" unicode="o" horiz-adv-x="575" 
d="M266 -12c-154 0 -239 93 -239 220c0 150 116 287 279 287c154 0 240 -93 240 -220c0 -150 -116 -287 -280 -287zM271 101c85 0 143 81 143 168c0 70 -42 113 -112 113c-85 0 -144 -81 -144 -168c0 -70 43 -113 113 -113z" />
    <glyph glyph-name="p" unicode="p" horiz-adv-x="583" 
d="M304 -12c-65 0 -122 28 -154 76l-55 -248h-127l148 667h127l-14 -60c41 48 88 72 146 72c109 0 183 -72 183 -200c0 -145 -90 -307 -254 -307zM283 101c84 0 142 79 142 168c0 69 -45 113 -107 113c-44 0 -84 -25 -110 -58l-38 -167c21 -33 62 -56 113 -56z" />
    <glyph glyph-name="q" unicode="q" horiz-adv-x="583" 
d="M281 495c65 0 122 -28 154 -76l13 64h128l-148 -667h-128l55 244c-41 -48 -87 -72 -145 -72c-109 0 -184 72 -184 200c0 146 91 307 255 307zM301 382c-83 0 -142 -79 -142 -168c0 -69 46 -113 107 -113c45 0 85 25 111 58l37 167c-21 33 -62 56 -113 56z" />
    <glyph glyph-name="r" unicode="r" horiz-adv-x="360" 
d="M136 0h-127l107 483h127l-14 -63c42 46 94 75 171 75l-28 -126c-8 2 -26 6 -46 6c-47 0 -92 -26 -120 -58z" />
    <glyph glyph-name="s" unicode="s" horiz-adv-x="477" 
d="M219 -12c-88 0 -173 30 -227 87l71 89c29 -34 99 -76 169 -76c43 0 70 23 70 50c0 65 -246 49 -246 194c0 84 70 163 199 163c82 0 159 -31 205 -78l-66 -85c-23 30 -83 63 -142 63c-45 0 -70 -20 -70 -45c0 -59 246 -46 246 -193c0 -92 -77 -169 -209 -169z" />
    <glyph glyph-name="t" unicode="t" horiz-adv-x="338" 
d="M203 -12c-86 0 -144 33 -144 105c0 6 1 21 4 33l54 246h-80l25 111h80l29 132h127l-29 -132h98l-25 -111h-98l-47 -212c-1 -6 -1 -11 -1 -17c0 -26 15 -42 47 -42c13 0 29 5 35 10l4 -102c-18 -13 -48 -21 -79 -21z" />
    <glyph glyph-name="u" unicode="u" horiz-adv-x="579" 
d="M115 483h127l-64 -292c-2 -9 -4 -19 -4 -28c0 -44 36 -62 82 -62c44 0 86 29 114 57l72 325h127l-107 -483h-127l14 62c-38 -36 -90 -74 -161 -74c-93 0 -152 48 -152 123c0 9 3 30 6 40z" />
    <glyph glyph-name="v" unicode="v" horiz-adv-x="513" 
d="M271 0h-137l-87 483h132l51 -336l202 336h140z" />
    <glyph glyph-name="w" unicode="w" horiz-adv-x="770" 
d="M569 0h-136l-30 329l-174 -329h-136l-40 483h128l18 -325l178 325h113l33 -325l163 325h137z" />
    <glyph glyph-name="x" unicode="x" horiz-adv-x="504" 
d="M450 0h-137l-75 163l-147 -163h-145l226 248l-109 235h138l66 -148l133 148h146l-214 -235z" />
    <glyph glyph-name="y" unicode="y" horiz-adv-x="513" 
d="M-48 -184l42 110c11 -5 31 -7 49 -7c26 0 43 8 60 33l30 46l-86 485h132l51 -336l202 336h140l-352 -562c-53 -86 -107 -117 -187 -117c-28 0 -58 4 -81 12z" />
    <glyph glyph-name="z" unicode="z" horiz-adv-x="479" 
d="M383 0h-395l21 95l275 277h-213l24 111h391l-21 -91l-279 -281h220z" />
    <glyph glyph-name="braceleft" unicode="{" horiz-adv-x="288" 
d="M174 -190h-45c-74 0 -139 52 -139 128c0 10 1 21 4 31l39 172c1 6 2 13 2 18c0 29 -15 49 -40 49l16 72c39 0 59 30 67 67l38 171c25 110 95 160 191 160h60l-18 -85h-61c-41 0 -69 -26 -80 -74l-43 -195c-10 -42 -29 -78 -65 -89c21 -12 29 -32 29 -56
c0 -10 -1 -22 -4 -34l-39 -175c-1 -6 -2 -13 -2 -19c0 -34 24 -56 56 -56h54z" />
    <glyph glyph-name="bar" unicode="|" horiz-adv-x="216" 
d="M171 -20h-85v707h85v-707z" />
    <glyph glyph-name="braceright" unicode="}" horiz-adv-x="288" 
d="M113 678h45c74 0 139 -52 139 -128c0 -10 -1 -22 -4 -31l-38 -172c-1 -6 -2 -13 -2 -18c0 -29 15 -49 39 -49l-16 -72c-39 0 -59 -30 -67 -67l-38 -171c-25 -110 -95 -160 -190 -160h-61l19 85h60c42 0 69 26 80 74l44 195c9 42 29 78 65 90c-21 11 -29 31 -29 55
c0 10 1 22 4 34l38 175c1 6 2 13 2 19c0 34 -23 56 -55 56h-54z" />
    <glyph glyph-name="asciitilde" unicode="~" horiz-adv-x="510" 
d="M491 667l84 -10c-26 -120 -76 -245 -189 -245c-144 0 -74 176 -137 176c-40 0 -81 -86 -99 -176l-85 10c26 122 78 244 189 244c145 0 74 -177 138 -177c40 0 81 89 99 178z" />
    <glyph glyph-name="exclamdown" unicode="&#xa1;" horiz-adv-x="255" 
d="M76 265h112l-78 -449h-154zM172 495c41 0 73 -34 73 -75c0 -48 -41 -88 -89 -88c-41 0 -73 34 -73 75c0 48 41 88 89 88z" />
    <glyph glyph-name="cent" unicode="&#xa2;" horiz-adv-x="499" 
d="M164 -100l22 98c-98 26 -158 104 -158 210c0 155 116 280 268 287l16 70h92l-18 -80c56 -15 95 -46 119 -85l-95 -73c-12 19 -29 34 -50 44l-59 -268c31 6 58 23 78 46l69 -84c-35 -38 -93 -74 -173 -77l-19 -88h-92zM157 215c0 -47 22 -81 55 -99l58 261
c-69 -18 -113 -86 -113 -162z" />
    <glyph glyph-name="sterling" unicode="&#xa3;" horiz-adv-x="550" 
d="M28 269l18 81h79c-16 33 -33 66 -33 110c0 120 118 217 262 217c112 0 208 -48 235 -134l-128 -53c-10 45 -51 71 -101 71c-63 0 -114 -48 -114 -116c0 -39 17 -64 29 -95h142l-19 -81h-113c-10 -58 -56 -110 -93 -130c18 6 30 8 45 8c58 0 90 -33 143 -33
c36 0 62 16 81 36l31 -113c-27 -28 -65 -50 -123 -50c-87 0 -156 44 -219 44c-35 0 -70 -13 -112 -38l-26 97c78 35 139 100 139 167c0 4 0 8 -1 12h-122z" />
    <glyph glyph-name="fraction" unicode="&#x2044;" horiz-adv-x="159" 
d="M424 667l-574 -667h-76l573 667h77z" />
    <glyph glyph-name="fraction" unicode="&#x2215;" horiz-adv-x="159" 
d="M424 667l-574 -667h-76l573 667h77z" />
    <glyph glyph-name="yen" unicode="&#xa5;" horiz-adv-x="645" 
d="M341 0h-142l25 115h-230l18 78h229l18 80h-229l17 79h178l-135 315h154l106 -267l224 267h169l-273 -315h177l-18 -79h-227l-18 -80h227l-17 -78h-228z" />
    <glyph glyph-name="florin" unicode="&#x192;" horiz-adv-x="454" 
d="M99 -161h-146l89 399h-54v112h78l37 166c21 96 79 161 178 161c49 0 99 -12 137 -48l-53 -99c-13 15 -31 22 -52 22c-35 0 -61 -24 -71 -67l-30 -135h113v-112h-137z" />
    <glyph glyph-name="section" unicode="&#xa7;" horiz-adv-x="484" 
d="M467 333c0 -66 -46 -124 -116 -148c43 -24 61 -60 61 -99c0 -93 -83 -167 -205 -167c-99 0 -185 30 -239 84l71 75c37 -43 103 -70 167 -70c48 0 79 27 79 59c0 81 -242 57 -242 206c0 65 43 118 128 141c-45 21 -73 58 -73 106c0 90 81 157 198 157
c99 0 168 -28 213 -73l-66 -70c-31 35 -88 54 -141 54c-51 0 -79 -25 -79 -54c0 -77 244 -52 244 -201zM335 304c0 37 -33 57 -69 68c-66 -9 -95 -40 -95 -75c0 -37 37 -55 87 -71c55 14 77 48 77 78z" />
    <glyph glyph-name="currency" unicode="&#xa4;" horiz-adv-x="522" 
d="M461 136l-34 -27l-37 49c-46 -33 -93 -44 -132 -44c-58 0 -105 21 -145 59l-79 -66l-23 31l77 63c-21 38 -31 62 -31 108c0 66 28 122 80 173l-37 49l32 26l39 -48c46 33 94 43 133 43c58 0 103 -20 143 -57l78 64l25 -30l-78 -64c22 -36 31 -66 31 -108
c0 -66 -29 -121 -80 -173zM454 351c0 91 -64 153 -155 153c-102 0 -193 -87 -193 -189c0 -91 64 -153 155 -153c102 0 193 87 193 189z" />
    <glyph glyph-name="quotesingle" unicode="'" horiz-adv-x="225" 
d="M169 375h-56s8 202 9 222c1 46 35 80 79 80c33 0 61 -26 61 -62c0 -12 -5 -25 -7 -30c-6 -15 -86 -210 -86 -210z" />
    <glyph glyph-name="quotedblleft" unicode="&#x201c;" horiz-adv-x="459" 
d="M296 477c0 77 64 160 147 201l45 -48c-36 -16 -82 -48 -98 -84c2 1 8 1 10 1c33 0 62 -22 62 -65c0 -47 -44 -86 -89 -86c-40 0 -77 28 -77 81zM92 477c0 77 64 160 147 201l46 -48c-36 -16 -82 -48 -98 -84c2 1 8 1 10 1c33 0 62 -22 62 -65c0 -47 -44 -86 -89 -86
c-40 0 -78 28 -78 81z" />
    <glyph glyph-name="guillemotleft" unicode="&#xab;" horiz-adv-x="527" 
d="M263 63h-114l-120 180l200 177h122l-204 -182zM452 63h-113l-120 180l200 177h121l-204 -182z" />
    <glyph glyph-name="guilsinglleft" unicode="&#x2039;" horiz-adv-x="338" 
d="M263 63h-114l-120 180l200 177h122l-204 -182z" />
    <glyph glyph-name="guilsinglright" unicode="&#x203a;" horiz-adv-x="338" 
d="M77 420h114l120 -180l-200 -177h-122l204 182z" />
    <glyph glyph-name="endash" unicode="&#x2013;" horiz-adv-x="593" 
d="M551 188h-533l23 108h533z" />
    <glyph glyph-name="dagger" unicode="&#x2020;" horiz-adv-x="277" 
d="M318 522l-88 4l-40 -199h-68l49 199l-90 -4l14 62l88 -3l17 96h68l-25 -96l89 3z" />
    <glyph glyph-name="daggerdbl" unicode="&#x2021;" horiz-adv-x="277" 
d="M332 584l-14 -62l-88 4l-43 -194l90 4l-14 -62l-88 3l-18 -97h-68l26 97l-89 -3l14 62l87 -4l43 194l-89 -4l14 62l88 -3l17 96h68l-25 -96z" />
    <glyph glyph-name="periodcentered" unicode="&#xb7;" horiz-adv-x="257" 
d="M121 164c-42 0 -74 34 -74 75c0 48 41 87 89 87c41 0 73 -33 73 -74c0 -48 -41 -88 -88 -88z" />
    <glyph glyph-name="periodcentered" unicode="&#x2219;" horiz-adv-x="257" 
d="M121 164c-42 0 -74 34 -74 75c0 48 41 87 89 87c41 0 73 -33 73 -74c0 -48 -41 -88 -88 -88z" />
    <glyph glyph-name="paragraph" unicode="&#xb6;" horiz-adv-x="449" 
d="M326 -100h-63l157 705h-79l-156 -705h-63l94 423c-74 0 -137 65 -137 156c0 94 82 188 194 188h223z" />
    <glyph glyph-name="bullet" unicode="&#x2022;" horiz-adv-x="358" 
d="M299 254c0 -71 -62 -130 -133 -130c-61 0 -107 46 -107 107c0 71 62 130 133 130c61 0 107 -46 107 -107z" />
    <glyph glyph-name="quotesinglbase" unicode="&#x201a;" horiz-adv-x="255" 
d="M174 69c0 -76 -64 -160 -147 -200l-45 47c36 17 82 49 98 84h-11c-32 0 -61 22 -61 65c0 47 44 86 89 86c40 0 77 -28 77 -82z" />
    <glyph glyph-name="quotedblbase" unicode="&#x201e;" horiz-adv-x="459" 
d="M174 69c0 -76 -64 -160 -147 -200l-45 47c36 17 82 49 98 84h-11c-32 0 -61 22 -61 65c0 47 44 86 89 86c40 0 77 -28 77 -82zM377 69c0 -76 -63 -160 -146 -200l-46 47c36 17 82 49 98 84h-10c-33 0 -62 22 -62 65c0 47 44 86 89 86c40 0 77 -28 77 -82z" />
    <glyph glyph-name="quotedblright" unicode="&#x201d;" horiz-adv-x="459" 
d="M291 595c0 -76 -64 -159 -147 -200l-45 48c35 16 81 48 98 84c-3 -1 -8 -1 -11 -1c-33 0 -62 22 -62 65c0 47 44 86 89 86c41 0 78 -28 78 -82zM494 595c0 -76 -64 -159 -147 -200l-45 48c36 16 82 48 98 84c-3 -1 -8 -1 -11 -1c-33 0 -61 22 -61 65c0 47 43 86 88 86
c41 0 78 -28 78 -82z" />
    <glyph glyph-name="guillemotright" unicode="&#xbb;" horiz-adv-x="527" 
d="M77 420h114l120 -180l-200 -177h-122l204 182zM267 420h113l120 -180l-200 -177h-121l204 182z" />
    <glyph glyph-name="ellipsis" unicode="&#x2026;" horiz-adv-x="768" 
d="M82 -12c-41 0 -74 34 -74 75c0 48 41 88 89 88c41 0 74 -34 74 -75c0 -48 -41 -88 -89 -88zM338 -12c-41 0 -74 34 -74 75c0 48 41 88 89 88c41 0 74 -34 74 -75c0 -48 -41 -88 -89 -88zM594 -12c-41 0 -73 34 -73 75c0 48 40 88 88 88c41 0 74 -34 74 -75
c0 -48 -41 -88 -89 -88z" />
    <glyph glyph-name="perthousand" unicode="&#x2030;" horiz-adv-x="1122" 
d="M151 0h-75l573 667h76zM530 -12c-86 0 -160 53 -160 139c0 116 86 194 185 194c85 0 160 -53 160 -139c0 -115 -86 -194 -185 -194zM533 66c49 0 91 43 91 108c0 39 -30 68 -72 68c-50 0 -91 -43 -91 -107c0 -40 29 -69 72 -69zM242 345c-86 0 -160 52 -160 138
c0 116 86 194 185 194c85 0 160 -52 160 -138c0 -116 -86 -194 -185 -194zM245 423c49 0 91 43 91 107c0 40 -30 69 -72 69c-50 0 -92 -43 -92 -108c0 -39 30 -68 73 -68zM894 -12c-86 0 -160 53 -160 139c0 116 86 194 185 194c85 0 160 -53 160 -139
c0 -115 -86 -194 -185 -194zM897 66c49 0 91 43 91 108c0 39 -30 68 -72 68c-49 0 -91 -43 -91 -107c0 -40 29 -69 72 -69z" />
    <glyph glyph-name="questiondown" unicode="&#xbf;" 
d="M169 247l117 31c11 -20 16 -42 16 -70c0 -146 -194 -144 -194 -225c0 -32 28 -53 82 -53c42 0 87 17 121 48l61 -98c-63 -53 -133 -75 -203 -75c-116 0 -212 55 -212 148c0 177 223 164 223 265c0 7 -2 19 -11 29zM275 494c41 0 73 -34 73 -75c0 -48 -40 -88 -88 -88
c-41 0 -74 34 -74 75c0 48 41 88 89 88z" />
    <glyph glyph-name="grave" unicode="`" horiz-adv-x="251" 
d="M320 556h-89l-130 144h117z" />
    <glyph glyph-name="grave" unicode="&#x2cb;" horiz-adv-x="251" 
d="M320 556h-89l-130 144h117z" />
    <glyph glyph-name="acute" unicode="&#xb4;" horiz-adv-x="251" 
d="M352 700l-194 -144h-91l166 144h119z" />
    <glyph glyph-name="circumflex" unicode="&#x2c6;" horiz-adv-x="300" 
d="M369 556h-76l-54 89l-90 -89h-80l124 144h114z" />
    <glyph glyph-name="tilde" unicode="&#x2dc;" horiz-adv-x="327" 
d="M303 554c-70 0 -74 68 -120 68c-20 0 -36 -19 -45 -62h-68c17 85 51 134 121 134s75 -67 121 -67c20 0 35 19 45 61h68c-18 -85 -52 -134 -122 -134z" />
    <glyph glyph-name="macron" unicode="&#xaf;" horiz-adv-x="363" 
d="M439 591h-362l16 73h362z" />
    <glyph glyph-name="macron" unicode="&#x203e;" horiz-adv-x="363" 
d="M439 591h-362l16 73h362z" />
    <glyph glyph-name="breve" unicode="&#x2d8;" horiz-adv-x="351" 
d="M439 644c-52 -54 -122 -88 -194 -88c-71 0 -128 34 -157 88l64 47c19 -37 55 -62 106 -62c50 0 96 23 133 62z" />
    <glyph glyph-name="dotaccent" unicode="&#x2d9;" horiz-adv-x="174" 
d="M239 626c0 -40 -37 -75 -77 -75c-34 0 -60 26 -60 60c0 40 37 76 77 76c34 0 60 -26 60 -61z" />
    <glyph glyph-name="dieresis" unicode="&#xa8;" horiz-adv-x="295" 
d="M403 619c0 -40 -37 -76 -77 -76c-34 0 -60 26 -60 60c0 40 37 76 76 76c35 0 61 -26 61 -60zM191 619c0 -40 -36 -76 -76 -76c-34 0 -60 26 -60 60c0 40 37 76 76 76c35 0 60 -26 60 -60z" />
    <glyph glyph-name="ring" unicode="&#x2da;" horiz-adv-x="209" 
d="M185 547c-57 0 -96 39 -96 96c0 62 53 115 115 115c57 0 96 -39 96 -96c0 -62 -53 -115 -115 -115zM190 606c27 0 51 23 51 50c0 25 -17 43 -42 43c-27 0 -51 -23 -51 -50c0 -25 17 -43 42 -43z" />
    <glyph glyph-name="cedilla" unicode="&#xb8;" horiz-adv-x="221" 
d="M30 -195c-53 0 -96 18 -119 41l35 47c24 -22 54 -35 85 -35c30 0 49 14 49 35c0 14 -10 24 -29 24c-12 0 -22 -5 -30 -14l-40 26l48 82h63l-39 -62c10 8 19 10 31 10c33 0 59 -23 59 -62c0 -56 -49 -92 -113 -92z" />
    <glyph glyph-name="hungarumlaut" unicode="&#x2dd;" horiz-adv-x="338" 
d="M290 700l-147 -144h-76l119 144h104zM439 700l-147 -144h-76l119 144h104z" />
    <glyph glyph-name="ogonek" unicode="&#x2db;" horiz-adv-x="195" 
d="M68 -99l43 -36c-23 -30 -52 -51 -94 -51c-50 0 -94 25 -94 76c0 56 40 109 113 140l44 -30c-60 -26 -94 -60 -94 -99c0 -22 14 -33 35 -33c20 0 35 13 47 33z" />
    <glyph glyph-name="caron" unicode="&#x2c7;" horiz-adv-x="300" 
d="M278 556h-114l-63 144h76l54 -89l90 89h80z" />
    <glyph glyph-name="emdash" unicode="&#x2014;" horiz-adv-x="833" 
d="M791 188h-773l23 108h773z" />
    <glyph glyph-name="AE" unicode="&#xc6;" horiz-adv-x="968" 
d="M872 0h-472l25 113h-230l-91 -113h-167l553 667h529l-27 -125h-330l-30 -140h322l-28 -125h-322l-34 -152h330zM453 238l61 280l-224 -280h163z" />
    <glyph glyph-name="ordfeminine" unicode="&#xaa;" horiz-adv-x="414" 
d="M269 575c-55 0 -96 -53 -96 -113c0 -48 29 -71 68 -71c27 0 52 15 70 34l27 122c-14 18 -42 28 -69 28zM358 640h93l-70 -314h-93l8 39c-28 -33 -57 -47 -94 -47c-66 0 -125 45 -125 133c0 110 75 197 169 197c44 0 81 -14 104 -46z" />
    <glyph glyph-name="Lslash" unicode="&#x141;" horiz-adv-x="535" 
d="M-3 192l26 116l80 41l70 318h143l-52 -236l86 45l-26 -117l-86 -44l-42 -190h282l-27 -125h-425l51 233z" />
    <glyph glyph-name="Oslash" unicode="&#xd8;" horiz-adv-x="765" 
d="M372 -12c-80 0 -151 21 -207 60l-47 -48h-103l95 97c-42 49 -66 114 -66 190c0 218 168 391 388 391c74 0 143 -19 197 -54l42 43h102l-88 -89c47 -50 75 -118 75 -198c0 -218 -168 -392 -388 -392zM380 114c129 0 231 113 231 256c0 40 -11 75 -29 103l-318 -324
c31 -23 71 -35 116 -35zM193 296c0 -36 8 -67 22 -93l315 320c-30 19 -67 29 -107 29c-129 0 -230 -113 -230 -256z" />
    <glyph glyph-name="OE" unicode="&#x152;" horiz-adv-x="1084" 
d="M987 0h-471l16 76c-47 -54 -116 -88 -208 -88c-156 0 -280 124 -280 299c0 233 176 390 378 390c95 0 174 -33 218 -114l23 104h471l-27 -125h-329l-31 -140h322l-28 -125h-322l-33 -152h329zM564 219l44 201c-22 84 -89 131 -177 131c-139 0 -238 -115 -238 -255
c0 -110 76 -182 180 -182c77 0 148 40 191 105z" />
    <glyph glyph-name="ordmasculine" unicode="&#xba;" horiz-adv-x="405" 
d="M242 318c-101 0 -163 61 -163 146c0 105 90 184 190 184s162 -61 162 -146c0 -105 -89 -184 -189 -184zM244 392c61 0 93 58 93 111c0 43 -27 69 -70 69c-61 0 -93 -58 -93 -111c0 -42 27 -69 70 -69z" />
    <glyph glyph-name="ae" unicode="&#xe6;" horiz-adv-x="914" 
d="M653 -12c-92 0 -142 40 -167 91l-17 -79h-128l14 60c-41 -48 -88 -72 -145 -72c-110 0 -184 72 -184 200c0 146 90 307 254 307c65 0 123 -28 154 -76l14 64h128l-13 -56c39 41 89 68 146 68c113 0 176 -71 176 -206c0 -31 -6 -74 -10 -89h-357c0 -3 -1 -9 -1 -12
c0 -41 44 -94 134 -94c42 0 89 13 120 36l39 -92c-47 -32 -109 -50 -157 -50zM301 382c-83 0 -142 -79 -142 -168c0 -69 46 -113 107 -113c45 0 84 25 111 58l37 167c-21 33 -62 56 -113 56zM771 288c0 2 1 8 1 10c0 49 -34 93 -110 93c-68 0 -120 -50 -131 -103h240z" />
    <glyph glyph-name="dotlessi" unicode="&#x131;" horiz-adv-x="253" 
d="M136 0h-127l107 483h127z" />
    <glyph glyph-name="lslash" unicode="&#x142;" horiz-adv-x="308" 
d="M-1 204l21 93l93 47l71 323h127l-55 -250l92 47l-20 -92l-93 -48l-71 -324h-127l55 251z" />
    <glyph glyph-name="oslash" unicode="&#xf8;" horiz-adv-x="575" 
d="M67 0h-83l82 76c-26 36 -39 81 -39 132c0 150 116 287 279 287c65 0 119 -17 158 -46l37 34h85l-81 -75c27 -36 41 -82 41 -133c0 -150 -116 -287 -280 -287c-67 0 -121 17 -161 48zM271 101c85 0 143 81 143 168c0 17 -3 33 -8 47l-208 -194c19 -14 43 -21 73 -21z
M158 214c0 -17 2 -32 7 -45l207 193c-18 13 -42 20 -70 20c-85 0 -144 -81 -144 -168z" />
    <glyph glyph-name="oe" unicode="&#x153;" horiz-adv-x="931" 
d="M894 200h-354c-1 -2 -1 -7 -1 -12c0 -45 46 -96 131 -96c43 0 91 13 120 35l39 -89c-41 -29 -101 -50 -169 -50c-106 0 -175 59 -198 107c-42 -46 -96 -107 -198 -107c-140 0 -237 81 -237 220c0 144 109 287 277 287c101 0 165 -62 187 -107c41 46 99 107 198 107
c116 0 215 -74 215 -215c0 -29 -5 -61 -10 -80zM553 288h238v10c0 49 -33 93 -109 93c-71 0 -121 -56 -129 -103zM410 269c0 79 -50 113 -110 113c-79 0 -142 -74 -142 -168c0 -70 42 -113 111 -113c82 0 141 78 141 168z" />
    <glyph glyph-name="germandbls" unicode="&#xdf;" horiz-adv-x="643" 
d="M610 156c0 -89 -82 -168 -204 -168c-95 0 -158 28 -214 89l71 81c34 -40 81 -68 147 -68c45 0 73 24 73 51c0 62 -219 42 -219 177c0 138 166 141 166 197c0 30 -35 49 -83 49c-56 0 -93 -33 -106 -89l-104 -475h-128l105 475c24 110 100 202 239 202
c103 0 212 -54 212 -139c0 -134 -174 -136 -174 -200c0 -57 219 -40 219 -182z" />
    <glyph glyph-name="onesuperior" unicode="&#xb9;" horiz-adv-x="286" 
d="M265 421h-97l60 273l-80 -66l-44 59l166 134h83z" />
    <glyph glyph-name="logicalnot" unicode="&#xac;" horiz-adv-x="515" 
d="M524 468l-58 -267h-82l42 188h-365l17 79h446z" />
    <glyph glyph-name="mu" unicode="&#xb5;" horiz-adv-x="579" 
d="M95 -184h-127l148 667h127l-65 -293c-15 -67 14 -90 69 -90c49 0 94 28 122 56l73 327h127l-107 -483h-127l12 61c-40 -36 -106 -73 -185 -73c-10 0 -20 1 -29 2z" />
    <glyph glyph-name="mu" unicode="&#x3bc;" horiz-adv-x="579" 
d="M95 -184h-127l148 667h127l-65 -293c-15 -67 14 -90 69 -90c49 0 94 28 122 56l73 327h127l-107 -483h-127l12 61c-40 -36 -106 -73 -185 -73c-10 0 -20 1 -29 2z" />
    <glyph glyph-name="trademark" unicode="&#x2122;" horiz-adv-x="454" 
d="M464 447h-28l40 182l-115 -182h-8l-35 182l-40 -182h-28l48 220h43l29 -160l99 160h43zM257 641h-62l-43 -194h-28l43 194h-62l5 26h152z" />
    <glyph glyph-name="Eth" unicode="&#xd0;" horiz-adv-x="742" 
d="M299 0h-262l61 277h-82l25 114h82l61 276h258c148 0 289 -114 289 -286c0 -176 -118 -381 -432 -381zM327 125c160 1 257 113 257 246c0 97 -70 171 -168 171h-117l-34 -151h149l-26 -114h-148l-33 -152h120z" />
    <glyph glyph-name="onehalf" unicode="&#xbd;" horiz-adv-x="867" 
d="M734 667l-574 -667h-76l573 667h77zM776 0h-315l17 74c199 115 259 157 259 207c0 32 -29 48 -67 48c-45 0 -87 -19 -112 -43l-40 64c40 36 101 56 155 56c91 0 163 -42 163 -116c0 -75 -80 -137 -217 -213h173zM231 267h-97l60 273l-80 -66l-44 59l166 134h83z" />
    <glyph glyph-name="plusminus" unicode="&#xb1;" horiz-adv-x="504" 
d="M493 326h-180l-45 -203h-87l46 203h-180l17 79h180l44 196h86l-43 -196h179zM421 0h-446l17 79h446z" />
    <glyph glyph-name="Thorn" unicode="&#xde;" horiz-adv-x="625" 
d="M154 0h-142l147 667h142l-23 -108h163c107 0 185 -85 185 -184c0 -110 -75 -245 -275 -245h-168zM359 255c76 0 119 50 119 105c0 44 -36 75 -83 75h-145l-39 -180h148z" />
    <glyph glyph-name="onequarter" unicode="&#xbc;" horiz-adv-x="833" 
d="M734 667l-574 -667h-76l573 667h77zM774 86h-53l-18 -86h-96l19 86h-197l15 65l213 249h134l-53 -239h52zM643 161l34 154l-135 -154h101zM231 267h-97l60 273l-80 -66l-44 59l166 134h83z" />
    <glyph glyph-name="divide" unicode="&#xf7;" horiz-adv-x="511" 
d="M494 298h-453l17 79h453zM230 96c-31 0 -55 26 -55 56c0 36 30 66 66 66c31 0 56 -25 56 -56c0 -36 -31 -66 -67 -66zM309 454c-30 0 -55 26 -55 56c0 36 30 66 66 66c31 0 56 -26 56 -56c0 -36 -31 -66 -67 -66z" />
    <glyph glyph-name="brokenbar" unicode="&#xa6;" horiz-adv-x="216" 
d="M171 -20h-85v316h85v-316zM171 371h-85v316h85v-316z" />
    <glyph glyph-name="degree" unicode="&#xb0;" horiz-adv-x="311" 
d="M356 541c0 -74 -61 -134 -135 -134c-75 0 -135 60 -135 134c0 75 60 136 135 136c74 0 135 -61 135 -136zM287 541c0 37 -30 67 -66 67c-37 0 -65 -30 -65 -67c0 -36 27 -65 64 -65c36 0 67 29 67 65z" />
    <glyph glyph-name="thorn" unicode="&#xfe;" horiz-adv-x="583" 
d="M304 -12c-65 0 -122 28 -154 76l-55 -248h-127l188 851h127l-54 -244c41 48 88 72 146 72c109 0 183 -72 183 -200c0 -145 -90 -307 -254 -307zM283 101c84 0 142 79 142 168c0 69 -45 113 -107 113c-44 0 -84 -25 -110 -58l-38 -167c21 -33 62 -56 113 -56z" />
    <glyph glyph-name="threequarters" unicode="&#xbe;" horiz-adv-x="921" 
d="M822 667l-574 -667h-76l573 667h77zM861 86h-53l-18 -86h-96l19 86h-197l15 65l213 249h134l-53 -239h52zM730 161l34 154l-135 -154h101zM394 379c0 -58 -57 -119 -158 -119c-80 0 -148 28 -179 73l60 59c27 -38 72 -55 115 -55c45 0 66 25 66 53s-34 43 -89 43
c-10 0 -27 0 -33 -1l16 76c12 -1 49 -2 65 -2c47 0 72 18 72 47s-38 43 -79 43c-38 0 -73 -10 -104 -36l-33 60c37 32 92 53 146 53c99 0 168 -38 168 -106c0 -51 -39 -96 -111 -101c43 -10 78 -39 78 -87z" />
    <glyph glyph-name="twosuperior" unicode="&#xb2;" 
d="M400 421h-315l17 74c199 115 259 157 259 207c0 32 -29 48 -67 48c-45 0 -87 -19 -112 -43l-40 64c40 36 101 56 155 56c91 0 163 -42 163 -116c0 -75 -80 -137 -217 -213h173z" />
    <glyph glyph-name="registered" unicode="&#xae;" horiz-adv-x="494" 
d="M508 465c0 -117 -95 -212 -213 -212c-117 0 -211 95 -211 212c0 118 95 212 212 212c118 0 212 -94 212 -212zM476 465c0 101 -81 180 -181 180s-179 -79 -179 -180c0 -99 79 -180 179 -180s181 81 181 180zM369 343h-40l-42 96h-44l-21 -96h-34l53 243h93
c42 0 71 -27 71 -64c0 -47 -41 -82 -80 -82zM369 519c0 22 -14 37 -43 37h-57l-19 -86h64c33 0 55 22 55 49z" />
    <glyph glyph-name="minus" unicode="&#x2212;" horiz-adv-x="504" 
d="M486 295h-446l17 79h447z" />
    <glyph glyph-name="eth" unicode="&#xf0;" horiz-adv-x="575" 
d="M153 485l-12 59l121 36c-18 15 -36 29 -54 43l90 93c40 -31 76 -62 107 -94l110 33l13 -59l-79 -24c68 -85 103 -174 103 -266c0 -172 -107 -318 -283 -318c-147 0 -244 84 -244 210c0 146 106 262 243 262c76 0 135 -37 164 -109c-14 60 -61 124 -118 181zM271 101
c79 0 138 63 138 145c0 52 -39 102 -119 102c-77 0 -134 -64 -134 -143c0 -64 41 -104 115 -104z" />
    <glyph glyph-name="multiply" unicode="&#xd7;" horiz-adv-x="504" 
d="M372 140l-107 138l-175 -143l-49 60l176 144l-108 139l63 51l107 -139l175 143l49 -60l-175 -144l106 -139z" />
    <glyph glyph-name="threesuperior" unicode="&#xb3;" 
d="M428 533c0 -58 -57 -119 -158 -119c-80 0 -148 28 -179 73l60 59c27 -38 72 -55 115 -55c45 0 66 25 66 53s-34 43 -89 43c-10 0 -27 0 -33 -1l16 76c12 -1 49 -2 65 -2c47 0 72 18 72 47s-38 43 -79 43c-38 0 -73 -10 -104 -36l-33 60c37 32 92 53 146 53
c99 0 168 -38 168 -106c0 -51 -39 -96 -111 -101c43 -10 78 -39 78 -87z" />
    <glyph glyph-name="copyright" unicode="&#xa9;" horiz-adv-x="778" 
d="M754 334c0 -190 -155 -345 -346 -345c-190 0 -344 155 -344 345c0 191 154 345 344 345c191 0 346 -154 346 -345zM718 334c0 170 -140 309 -310 309c-169 0 -308 -139 -308 -309c0 -169 139 -309 308 -309c170 0 310 140 310 309zM507 211l24 -34
c-36 -30 -85 -54 -138 -54c-118 0 -192 80 -192 184c0 137 113 238 233 238c69 0 127 -26 160 -80l-38 -27c-24 44 -68 67 -124 67c-90 0 -185 -82 -185 -197c0 -77 55 -145 146 -145c44 0 86 21 114 48z" />
    <glyph glyph-name="Aacute" unicode="&#xc1;" horiz-adv-x="684" 
d="M651 872l-194 -144h-91l166 144h119zM634 0h-154l-17 113h-286l-66 -113h-169l404 667h178zM452 238l-41 287l-167 -287h208z" />
    <glyph glyph-name="Acircumflex" unicode="&#xc2;" horiz-adv-x="684" 
d="M601 728h-76l-54 89l-90 -89h-80l124 144h114zM634 0h-154l-17 113h-286l-66 -113h-169l404 667h178zM452 238l-41 287l-167 -287h208z" />
    <glyph glyph-name="Adieresis" unicode="&#xc4;" horiz-adv-x="684" 
d="M636 792c0 -40 -37 -76 -77 -76c-34 0 -60 26 -60 60c0 40 37 76 76 76c35 0 61 -26 61 -60zM424 792c0 -40 -36 -76 -76 -76c-34 0 -60 26 -60 60c0 40 37 76 76 76c35 0 60 -26 60 -60zM634 0h-154l-17 113h-286l-66 -113h-169l404 667h178zM452 238l-41 287l-167 -287
h208z" />
    <glyph glyph-name="Agrave" unicode="&#xc0;" horiz-adv-x="684" 
d="M532 728h-89l-130 144h117zM634 0h-154l-17 113h-286l-66 -113h-169l404 667h178zM452 238l-41 287l-167 -287h208z" />
    <glyph glyph-name="Aring" unicode="&#xc5;" horiz-adv-x="684" 
d="M454 692c-57 0 -96 39 -96 96c0 62 53 115 115 115c57 0 96 -39 96 -96c0 -62 -53 -115 -115 -115zM459 751c27 0 51 23 51 50c0 25 -17 43 -42 43c-27 0 -51 -23 -51 -50c0 -25 17 -43 42 -43zM634 0h-154l-17 113h-286l-66 -113h-169l404 667h178zM452 238l-41 287
l-167 -287h208z" />
    <glyph glyph-name="Atilde" unicode="&#xc3;" horiz-adv-x="684" 
d="M520 726c-70 0 -74 68 -120 68c-20 0 -36 -19 -45 -62h-68c17 85 51 134 121 134s75 -67 121 -67c20 0 35 19 45 61h68c-18 -85 -52 -134 -122 -134zM634 0h-154l-17 113h-286l-66 -113h-169l404 667h178zM452 238l-41 287l-167 -287h208z" />
    <glyph glyph-name="Ccedilla" unicode="&#xc7;" horiz-adv-x="687" 
d="M372 -12c-7 0 -14 0 -20 1l-25 -40c10 8 19 10 31 10c33 0 59 -23 59 -62c0 -56 -49 -92 -113 -92c-53 0 -96 18 -119 41l35 47c24 -22 54 -35 85 -35c30 0 49 14 49 35c0 14 -10 24 -29 24c-12 0 -22 -5 -30 -14l-40 26l39 67c-145 28 -250 136 -250 291
c0 236 181 391 388 391c163 0 257 -88 296 -189l-136 -46c-26 71 -90 109 -167 109c-126 0 -232 -109 -232 -256c0 -104 72 -182 187 -182c57 0 119 30 157 77l110 -74c-77 -98 -188 -129 -275 -129z" />
    <glyph glyph-name="Eacute" unicode="&#xc9;" horiz-adv-x="583" 
d="M610 872l-194 -144h-91l166 144h119zM484 0h-472l147 667h472l-28 -125h-329l-31 -140h322l-27 -125h-323l-33 -152h329z" />
    <glyph glyph-name="Ecircumflex" unicode="&#xca;" horiz-adv-x="583" 
d="M559 728h-76l-54 89l-90 -89h-80l124 144h114zM484 0h-472l147 667h472l-28 -125h-329l-31 -140h322l-27 -125h-323l-33 -152h329z" />
    <glyph glyph-name="Edieresis" unicode="&#xcb;" horiz-adv-x="583" 
d="M597 792c0 -40 -37 -76 -77 -76c-34 0 -60 26 -60 60c0 40 37 76 76 76c35 0 61 -26 61 -60zM385 792c0 -40 -36 -76 -76 -76c-34 0 -60 26 -60 60c0 40 37 76 76 76c35 0 60 -26 60 -60zM484 0h-472l147 667h472l-28 -125h-329l-31 -140h322l-27 -125h-323l-33 -152h329
z" />
    <glyph glyph-name="Egrave" unicode="&#xc8;" horiz-adv-x="583" 
d="M492 728h-89l-130 144h117zM484 0h-472l147 667h472l-28 -125h-329l-31 -140h322l-27 -125h-323l-33 -152h329z" />
    <glyph glyph-name="Iacute" unicode="&#xcd;" horiz-adv-x="274" 
d="M448 872l-194 -144h-91l166 144h119zM154 0h-142l147 667h142z" />
    <glyph glyph-name="Icircumflex" unicode="&#xce;" horiz-adv-x="274" 
d="M394 728h-76l-54 89l-90 -89h-80l124 144h114zM154 0h-142l147 667h142z" />
    <glyph glyph-name="Idieresis" unicode="&#xcf;" horiz-adv-x="274" 
d="M431 792c0 -40 -37 -76 -77 -76c-34 0 -60 26 -60 60c0 40 37 76 76 76c35 0 61 -26 61 -60zM219 792c0 -40 -36 -76 -76 -76c-34 0 -60 26 -60 60c0 40 37 76 76 76c35 0 60 -26 60 -60zM154 0h-142l147 667h142z" />
    <glyph glyph-name="Igrave" unicode="&#xcc;" horiz-adv-x="274" 
d="M326 728h-89l-130 144h117zM154 0h-142l147 667h142z" />
    <glyph glyph-name="Ntilde" unicode="&#xd1;" horiz-adv-x="729" 
d="M541 726c-70 0 -74 68 -120 68c-20 0 -36 -19 -45 -62h-68c17 85 51 134 121 134s75 -67 121 -67c20 0 35 19 45 61h68c-18 -85 -52 -134 -122 -134zM609 0h-137l-220 442l-98 -442h-142l147 667h146l214 -425l95 425h142z" />
    <glyph glyph-name="Oacute" unicode="&#xd3;" horiz-adv-x="765" 
d="M692 872l-194 -144h-91l166 144h119zM372 -12c-185 0 -328 116 -328 299c0 218 168 391 388 391c184 0 328 -115 328 -298c0 -218 -168 -392 -388 -392zM380 114c129 0 231 113 231 256c0 112 -81 182 -188 182c-129 0 -230 -113 -230 -256c0 -112 80 -182 187 -182z" />
    <glyph glyph-name="Ocircumflex" unicode="&#xd4;" horiz-adv-x="765" 
d="M642 728h-76l-54 89l-90 -89h-80l124 144h114zM372 -12c-185 0 -328 116 -328 299c0 218 168 391 388 391c184 0 328 -115 328 -298c0 -218 -168 -392 -388 -392zM380 114c129 0 231 113 231 256c0 112 -81 182 -188 182c-129 0 -230 -113 -230 -256
c0 -112 80 -182 187 -182z" />
    <glyph glyph-name="Odieresis" unicode="&#xd6;" horiz-adv-x="765" 
d="M678 792c0 -40 -37 -76 -77 -76c-34 0 -60 26 -60 60c0 40 37 76 76 76c35 0 61 -26 61 -60zM466 792c0 -40 -36 -76 -76 -76c-34 0 -60 26 -60 60c0 40 37 76 76 76c35 0 60 -26 60 -60zM372 -12c-185 0 -328 116 -328 299c0 218 168 391 388 391
c184 0 328 -115 328 -298c0 -218 -168 -392 -388 -392zM380 114c129 0 231 113 231 256c0 112 -81 182 -188 182c-129 0 -230 -113 -230 -256c0 -112 80 -182 187 -182z" />
    <glyph glyph-name="Ograve" unicode="&#xd2;" horiz-adv-x="765" 
d="M575 728h-89l-130 144h117zM372 -12c-185 0 -328 116 -328 299c0 218 168 391 388 391c184 0 328 -115 328 -298c0 -218 -168 -392 -388 -392zM380 114c129 0 231 113 231 256c0 112 -81 182 -188 182c-129 0 -230 -113 -230 -256c0 -112 80 -182 187 -182z" />
    <glyph glyph-name="Otilde" unicode="&#xd5;" horiz-adv-x="765" 
d="M561 726c-70 0 -74 68 -120 68c-20 0 -36 -19 -45 -62h-68c17 85 51 134 121 134s75 -67 121 -67c20 0 35 19 45 61h68c-18 -85 -52 -134 -122 -134zM372 -12c-185 0 -328 116 -328 299c0 218 168 391 388 391c184 0 328 -115 328 -298c0 -218 -168 -392 -388 -392z
M380 114c129 0 231 113 231 256c0 112 -81 182 -188 182c-129 0 -230 -113 -230 -256c0 -112 80 -182 187 -182z" />
    <glyph glyph-name="Scaron" unicode="&#x160;" horiz-adv-x="600" 
d="M459 728h-114l-63 144h76l54 -89l90 89h80zM301 -12c-131 0 -246 51 -302 125l88 105c46 -62 133 -104 225 -104c72 0 101 41 101 75c0 94 -325 76 -325 271c0 110 97 217 261 217c106 0 206 -39 266 -108l-89 -102c-50 58 -131 85 -199 85c-51 0 -89 -30 -89 -66
c0 -87 326 -76 326 -269c0 -122 -98 -229 -263 -229z" />
    <glyph glyph-name="Uacute" unicode="&#xda;" horiz-adv-x="734" 
d="M677 872l-194 -144h-91l166 144h119zM356 -12c-191 0 -290 94 -290 233c0 13 3 35 5 46l88 400h144l-87 -397c-2 -6 -4 -19 -4 -33c1 -67 50 -124 144 -124c102 0 152 64 173 157l87 397h145l-89 -400c-35 -162 -119 -279 -316 -279z" />
    <glyph glyph-name="Ucircumflex" unicode="&#xdb;" horiz-adv-x="734" 
d="M630 728h-76l-54 89l-90 -89h-80l124 144h114zM356 -12c-191 0 -290 94 -290 233c0 13 3 35 5 46l88 400h144l-87 -397c-2 -6 -4 -19 -4 -33c1 -67 50 -124 144 -124c102 0 152 64 173 157l87 397h145l-89 -400c-35 -162 -119 -279 -316 -279z" />
    <glyph glyph-name="Udieresis" unicode="&#xdc;" horiz-adv-x="734" 
d="M663 792c0 -40 -37 -76 -77 -76c-34 0 -60 26 -60 60c0 40 37 76 76 76c35 0 61 -26 61 -60zM451 792c0 -40 -36 -76 -76 -76c-34 0 -60 26 -60 60c0 40 37 76 76 76c35 0 60 -26 60 -60zM356 -12c-191 0 -290 94 -290 233c0 13 3 35 5 46l88 400h144l-87 -397
c-2 -6 -4 -19 -4 -33c1 -67 50 -124 144 -124c102 0 152 64 173 157l87 397h145l-89 -400c-35 -162 -119 -279 -316 -279z" />
    <glyph glyph-name="Ugrave" unicode="&#xd9;" horiz-adv-x="734" 
d="M559 728h-89l-130 144h117zM356 -12c-191 0 -290 94 -290 233c0 13 3 35 5 46l88 400h144l-87 -397c-2 -6 -4 -19 -4 -33c1 -67 50 -124 144 -124c102 0 152 64 173 157l87 397h145l-89 -400c-35 -162 -119 -279 -316 -279z" />
    <glyph glyph-name="Yacute" unicode="&#xdd;" horiz-adv-x="645" 
d="M634 872l-194 -144h-91l166 144h119zM340 0h-142l60 273l-169 394h154l106 -267l224 267h169l-341 -394z" />
    <glyph glyph-name="Ydieresis" unicode="&#x178;" horiz-adv-x="645" 
d="M618 792c0 -40 -37 -76 -77 -76c-34 0 -60 26 -60 60c0 40 37 76 76 76c35 0 61 -26 61 -60zM406 792c0 -40 -36 -76 -76 -76c-34 0 -60 26 -60 60c0 40 37 76 76 76c35 0 60 -26 60 -60zM340 0h-142l60 273l-169 394h154l106 -267l224 267h169l-341 -394z" />
    <glyph glyph-name="Zcaron" unicode="&#x17d;" horiz-adv-x="592" 
d="M462 728h-114l-63 144h76l54 -89l90 89h80zM496 0h-508l25 115l401 427h-306l27 125h501l-24 -114l-403 -428h315z" />
    <glyph glyph-name="aacute" unicode="&#xe1;" horiz-adv-x="586" 
d="M281 495c65 0 122 -28 154 -76l13 64h128l-107 -483h-128l14 60c-41 -48 -87 -72 -145 -72c-109 0 -184 72 -184 200c0 146 91 307 255 307zM301 382c-83 0 -142 -79 -142 -168c0 -69 46 -113 107 -113c45 0 85 25 111 58l37 167c-21 33 -62 56 -113 56zM541 700
l-194 -144h-91l166 144h119z" />
    <glyph glyph-name="acircumflex" unicode="&#xe2;" horiz-adv-x="586" 
d="M281 495c65 0 122 -28 154 -76l13 64h128l-107 -483h-128l14 60c-41 -48 -87 -72 -145 -72c-109 0 -184 72 -184 200c0 146 91 307 255 307zM301 382c-83 0 -142 -79 -142 -168c0 -69 46 -113 107 -113c45 0 85 25 111 58l37 167c-21 33 -62 56 -113 56zM492 556h-76
l-54 89l-90 -89h-80l124 144h114z" />
    <glyph glyph-name="adieresis" unicode="&#xe4;" horiz-adv-x="586" 
d="M281 495c65 0 122 -28 154 -76l13 64h128l-107 -483h-128l14 60c-41 -48 -87 -72 -145 -72c-109 0 -184 72 -184 200c0 146 91 307 255 307zM301 382c-83 0 -142 -79 -142 -168c0 -69 46 -113 107 -113c45 0 85 25 111 58l37 167c-21 33 -62 56 -113 56zM528 619
c0 -40 -37 -76 -77 -76c-34 0 -60 26 -60 60c0 40 37 76 76 76c35 0 61 -26 61 -60zM316 619c0 -40 -36 -76 -76 -76c-34 0 -60 26 -60 60c0 40 37 76 76 76c35 0 60 -26 60 -60z" />
    <glyph glyph-name="agrave" unicode="&#xe0;" horiz-adv-x="586" 
d="M281 495c65 0 122 -28 154 -76l13 64h128l-107 -483h-128l14 60c-41 -48 -87 -72 -145 -72c-109 0 -184 72 -184 200c0 146 91 307 255 307zM301 382c-83 0 -142 -79 -142 -168c0 -69 46 -113 107 -113c45 0 85 25 111 58l37 167c-21 33 -62 56 -113 56zM422 556h-89
l-130 144h117z" />
    <glyph glyph-name="aring" unicode="&#xe5;" horiz-adv-x="586" 
d="M281 495c65 0 122 -28 154 -76l13 64h128l-107 -483h-128l14 60c-41 -48 -87 -72 -145 -72c-109 0 -184 72 -184 200c0 146 91 307 255 307zM301 382c-83 0 -142 -79 -142 -168c0 -69 46 -113 107 -113c45 0 85 25 111 58l37 167c-21 33 -62 56 -113 56zM351 540
c-57 0 -96 39 -96 96c0 62 53 115 115 115c57 0 96 -39 96 -96c0 -62 -53 -115 -115 -115zM356 599c27 0 51 23 51 50c0 25 -17 43 -42 43c-27 0 -51 -23 -51 -50c0 -25 17 -43 42 -43z" />
    <glyph glyph-name="atilde" unicode="&#xe3;" horiz-adv-x="586" 
d="M281 495c65 0 122 -28 154 -76l13 64h128l-107 -483h-128l14 60c-41 -48 -87 -72 -145 -72c-109 0 -184 72 -184 200c0 146 91 307 255 307zM301 382c-83 0 -142 -79 -142 -168c0 -69 46 -113 107 -113c45 0 85 25 111 58l37 167c-21 33 -62 56 -113 56zM410 554
c-70 0 -74 68 -120 68c-20 0 -36 -19 -45 -62h-68c17 85 51 134 121 134s75 -67 121 -67c20 0 35 19 45 61h68c-18 -85 -52 -134 -122 -134z" />
    <glyph glyph-name="ccedilla" unicode="&#xe7;" horiz-adv-x="499" 
d="M211 -195c-53 0 -96 18 -119 41l35 47c24 -22 54 -35 85 -35c30 0 49 14 49 35c0 14 -10 24 -29 24c-12 0 -22 -5 -30 -14l-40 26l38 66c-106 22 -172 102 -172 213c0 159 123 287 281 287c99 0 163 -40 196 -95l-95 -73c-20 34 -57 55 -101 55c-91 0 -152 -77 -152 -167
c0 -73 54 -114 121 -114c41 0 77 20 101 48l69 -84c-36 -39 -98 -77 -183 -77h-7l-24 -39c10 8 19 10 31 10c33 0 59 -23 59 -62c0 -56 -49 -92 -113 -92z" />
    <glyph glyph-name="eacute" unicode="&#xe9;" horiz-adv-x="553" 
d="M278 -12c-152 0 -250 82 -250 217c0 157 118 290 279 290c124 0 217 -80 217 -215c0 -29 -6 -65 -10 -80h-359v-12c0 -41 43 -96 133 -96c43 0 92 12 122 35l39 -89c-47 -32 -111 -50 -171 -50zM409 288h1c1 2 1 8 1 10c0 49 -36 93 -112 93c-69 0 -120 -50 -130 -103
h240zM555 700l-194 -144h-91l166 144h119z" />
    <glyph glyph-name="ecircumflex" unicode="&#xea;" horiz-adv-x="553" 
d="M278 -12c-152 0 -250 82 -250 217c0 157 118 290 279 290c124 0 217 -80 217 -215c0 -29 -6 -65 -10 -80h-359v-12c0 -41 43 -96 133 -96c43 0 92 12 122 35l39 -89c-47 -32 -111 -50 -171 -50zM409 288h1c1 2 1 8 1 10c0 49 -36 93 -112 93c-69 0 -120 -50 -130 -103
h240zM503 556h-76l-54 89l-90 -89h-80l124 144h114z" />
    <glyph glyph-name="edieresis" unicode="&#xeb;" horiz-adv-x="553" 
d="M278 -12c-152 0 -250 82 -250 217c0 157 118 290 279 290c124 0 217 -80 217 -215c0 -29 -6 -65 -10 -80h-359v-12c0 -41 43 -96 133 -96c43 0 92 12 122 35l39 -89c-47 -32 -111 -50 -171 -50zM409 288h1c1 2 1 8 1 10c0 49 -36 93 -112 93c-69 0 -120 -50 -130 -103
h240zM539 619c0 -40 -37 -76 -77 -76c-34 0 -60 26 -60 60c0 40 37 76 76 76c35 0 61 -26 61 -60zM327 619c0 -40 -36 -76 -76 -76c-34 0 -60 26 -60 60c0 40 37 76 76 76c35 0 60 -26 60 -60z" />
    <glyph glyph-name="egrave" unicode="&#xe8;" horiz-adv-x="553" 
d="M278 -12c-152 0 -250 82 -250 217c0 157 118 290 279 290c124 0 217 -80 217 -215c0 -29 -6 -65 -10 -80h-359v-12c0 -41 43 -96 133 -96c43 0 92 12 122 35l39 -89c-47 -32 -111 -50 -171 -50zM409 288h1c1 2 1 8 1 10c0 49 -36 93 -112 93c-69 0 -120 -50 -130 -103
h240zM434 556h-89l-130 144h117z" />
    <glyph glyph-name="iacute" unicode="&#xed;" horiz-adv-x="253" 
d="M397 700l-194 -144h-91l166 144h119zM136 0h-127l107 483h127z" />
    <glyph glyph-name="icircumflex" unicode="&#xee;" horiz-adv-x="253" 
d="M346 556h-76l-54 89l-90 -89h-80l124 144h114zM136 0h-127l107 483h127z" />
    <glyph glyph-name="idieresis" unicode="&#xef;" horiz-adv-x="253" 
d="M382 619c0 -40 -37 -76 -77 -76c-34 0 -60 26 -60 60c0 40 37 76 76 76c35 0 61 -26 61 -60zM170 619c0 -40 -36 -76 -76 -76c-34 0 -60 26 -60 60c0 40 37 76 76 76c35 0 60 -26 60 -60zM136 0h-127l107 483h127z" />
    <glyph glyph-name="igrave" unicode="&#xec;" horiz-adv-x="253" 
d="M277 556h-89l-130 144h117zM136 0h-127l107 483h127z" />
    <glyph glyph-name="ntilde" unicode="&#xf1;" horiz-adv-x="579" 
d="M470 0h-128l65 293c2 9 4 19 4 28c0 44 -36 61 -83 61c-43 0 -85 -29 -113 -56l-72 -326h-127l107 483h127l-14 -62c38 36 90 74 161 74c93 0 151 -48 151 -123c0 -9 -3 -30 -5 -40zM430 554c-70 0 -74 68 -120 68c-20 0 -36 -19 -45 -62h-68c17 85 51 134 121 134
s75 -67 121 -67c20 0 35 19 45 61h68c-18 -85 -52 -134 -122 -134z" />
    <glyph glyph-name="oacute" unicode="&#xf3;" horiz-adv-x="575" 
d="M266 -12c-154 0 -239 93 -239 220c0 150 116 287 279 287c154 0 240 -93 240 -220c0 -150 -116 -287 -280 -287zM271 101c85 0 143 81 143 168c0 70 -42 113 -112 113c-85 0 -144 -81 -144 -168c0 -70 43 -113 113 -113zM558 700l-194 -144h-91l166 144h119z" />
    <glyph glyph-name="ocircumflex" unicode="&#xf4;" horiz-adv-x="575" 
d="M266 -12c-154 0 -239 93 -239 220c0 150 116 287 279 287c154 0 240 -93 240 -220c0 -150 -116 -287 -280 -287zM271 101c85 0 143 81 143 168c0 70 -42 113 -112 113c-85 0 -144 -81 -144 -168c0 -70 43 -113 113 -113zM507 556h-76l-54 89l-90 -89h-80l124 144h114z
" />
    <glyph glyph-name="odieresis" unicode="&#xf6;" horiz-adv-x="575" 
d="M266 -12c-154 0 -239 93 -239 220c0 150 116 287 279 287c154 0 240 -93 240 -220c0 -150 -116 -287 -280 -287zM271 101c85 0 143 81 143 168c0 70 -42 113 -112 113c-85 0 -144 -81 -144 -168c0 -70 43 -113 113 -113zM543 619c0 -40 -37 -76 -77 -76
c-34 0 -60 26 -60 60c0 40 37 76 76 76c35 0 61 -26 61 -60zM331 619c0 -40 -36 -76 -76 -76c-34 0 -60 26 -60 60c0 40 37 76 76 76c35 0 60 -26 60 -60z" />
    <glyph glyph-name="ograve" unicode="&#xf2;" horiz-adv-x="575" 
d="M266 -12c-154 0 -239 93 -239 220c0 150 116 287 279 287c154 0 240 -93 240 -220c0 -150 -116 -287 -280 -287zM271 101c85 0 143 81 143 168c0 70 -42 113 -112 113c-85 0 -144 -81 -144 -168c0 -70 43 -113 113 -113zM439 556h-89l-130 144h117z" />
    <glyph glyph-name="otilde" unicode="&#xf5;" horiz-adv-x="575" 
d="M266 -12c-154 0 -239 93 -239 220c0 150 116 287 279 287c154 0 240 -93 240 -220c0 -150 -116 -287 -280 -287zM271 101c85 0 143 81 143 168c0 70 -42 113 -112 113c-85 0 -144 -81 -144 -168c0 -70 43 -113 113 -113zM427 554c-70 0 -74 68 -120 68
c-20 0 -36 -19 -45 -62h-68c17 85 51 134 121 134s75 -67 121 -67c20 0 35 19 45 61h68c-18 -85 -52 -134 -122 -134z" />
    <glyph glyph-name="scaron" unicode="&#x161;" horiz-adv-x="477" 
d="M219 -12c-88 0 -173 30 -227 87l71 89c29 -34 99 -76 169 -76c43 0 70 23 70 50c0 65 -246 49 -246 194c0 84 70 163 199 163c82 0 159 -31 205 -78l-66 -85c-23 30 -83 63 -142 63c-45 0 -70 -20 -70 -45c0 -59 246 -46 246 -193c0 -92 -77 -169 -209 -169zM365 556
h-114l-63 144h76l54 -89l90 89h80z" />
    <glyph glyph-name="uacute" unicode="&#xfa;" horiz-adv-x="579" 
d="M115 483h127l-64 -292c-2 -9 -4 -19 -4 -28c0 -44 36 -62 82 -62c44 0 86 29 114 57l72 325h127l-107 -483h-127l14 62c-38 -36 -90 -74 -161 -74c-93 0 -152 48 -152 123c0 9 3 30 6 40zM561 700l-194 -144h-91l166 144h119z" />
    <glyph glyph-name="ucircumflex" unicode="&#xfb;" horiz-adv-x="579" 
d="M115 483h127l-64 -292c-2 -9 -4 -19 -4 -28c0 -44 36 -62 82 -62c44 0 86 29 114 57l72 325h127l-107 -483h-127l14 62c-38 -36 -90 -74 -161 -74c-93 0 -152 48 -152 123c0 9 3 30 6 40zM510 556h-76l-54 89l-90 -89h-80l124 144h114z" />
    <glyph glyph-name="udieresis" unicode="&#xfc;" horiz-adv-x="579" 
d="M115 483h127l-64 -292c-2 -9 -4 -19 -4 -28c0 -44 36 -62 82 -62c44 0 86 29 114 57l72 325h127l-107 -483h-127l14 62c-38 -36 -90 -74 -161 -74c-93 0 -152 48 -152 123c0 9 3 30 6 40zM548 619c0 -40 -37 -76 -77 -76c-34 0 -60 26 -60 60c0 40 37 76 76 76
c35 0 61 -26 61 -60zM336 619c0 -40 -36 -76 -76 -76c-34 0 -60 26 -60 60c0 40 37 76 76 76c35 0 60 -26 60 -60z" />
    <glyph glyph-name="ugrave" unicode="&#xf9;" horiz-adv-x="579" 
d="M115 483h127l-64 -292c-2 -9 -4 -19 -4 -28c0 -44 36 -62 82 -62c44 0 86 29 114 57l72 325h127l-107 -483h-127l14 62c-38 -36 -90 -74 -161 -74c-93 0 -152 48 -152 123c0 9 3 30 6 40zM442 556h-89l-130 144h117z" />
    <glyph glyph-name="yacute" unicode="&#xfd;" horiz-adv-x="513" 
d="M-48 -184l42 110c11 -5 31 -7 49 -7c26 0 43 8 60 33l30 46l-86 485h132l51 -336l202 336h140l-352 -562c-53 -86 -107 -117 -187 -117c-28 0 -58 4 -81 12zM527 700l-194 -144h-91l166 144h119z" />
    <glyph glyph-name="ydieresis" unicode="&#xff;" horiz-adv-x="513" 
d="M-48 -184l42 110c11 -5 31 -7 49 -7c26 0 43 8 60 33l30 46l-86 485h132l51 -336l202 336h140l-352 -562c-53 -86 -107 -117 -187 -117c-28 0 -58 4 -81 12zM512 619c0 -40 -37 -76 -77 -76c-34 0 -60 26 -60 60c0 40 37 76 76 76c35 0 61 -26 61 -60zM300 619
c0 -40 -36 -76 -76 -76c-34 0 -60 26 -60 60c0 40 37 76 76 76c35 0 60 -26 60 -60z" />
    <glyph glyph-name="zcaron" unicode="&#x17e;" horiz-adv-x="479" 
d="M383 0h-395l21 95l275 277h-213l24 111h391l-21 -91l-279 -281h220zM361 556h-114l-63 144h76l54 -89l90 89h80z" />
    <glyph glyph-name="dollarsuperior" unicode="&#xf6e4;" horiz-adv-x="383" 
d="M265 414h-1l-11 -53h-62l13 58c-58 11 -104 36 -126 69l64 59c18 -26 46 -45 78 -55l20 94c-56 19 -117 44 -117 113c0 63 60 128 164 128h6l13 55h62l-14 -64c43 -11 80 -32 103 -58l-64 -53c-13 16 -32 31 -55 40l-20 -89c55 -19 114 -45 114 -110
c0 -71 -52 -134 -167 -134zM226 716c0 -16 14 -27 35 -37l17 78c-31 -3 -52 -18 -52 -41zM329 530c0 15 -13 26 -31 35l-18 -78c33 4 49 21 49 43z" />
    <glyph glyph-name="parenleftsuperior" unicode="&#x207d;" horiz-adv-x="192" 
d="M211 379l-62 -23c-36 50 -53 124 -53 189c0 132 73 260 170 341l52 -23c-85 -112 -129 -236 -129 -356c0 -40 8 -92 22 -128z" />
    <glyph glyph-name="parenrightsuperior" unicode="&#x207e;" horiz-adv-x="192" 
d="M152 863l63 23c36 -50 52 -124 52 -189c0 -132 -72 -260 -169 -341l-52 23c84 112 128 236 128 356c0 40 -8 92 -22 128z" />
    <glyph glyph-name="commasuperior" unicode="&#xf6e2;" horiz-adv-x="157" 
d="M178 473c0 -40 -31 -101 -92 -133l-28 32c18 8 51 30 59 50c0 0 -4 -1 -6 -1c-18 0 -39 16 -39 45c0 32 28 57 59 57c25 0 47 -18 47 -50z" />
    <glyph glyph-name="periodsuperior" unicode="&#xf6e8;" horiz-adv-x="158" 
d="M182 475c0 -31 -29 -58 -60 -58c-28 0 -48 20 -48 48c0 31 28 58 60 58c28 0 48 -20 48 -48z" />
    <glyph glyph-name="asuperior" unicode="&#xf6e9;" horiz-adv-x="385" 
d="M269 575c-55 0 -96 -53 -96 -113c0 -48 29 -71 68 -71c27 0 52 15 70 34l27 122c-14 18 -42 28 -69 28zM358 640h93l-70 -314h-93l8 39c-28 -33 -57 -47 -94 -47c-66 0 -125 45 -125 133c0 110 75 197 169 197c44 0 81 -14 104 -46z" />
    <glyph glyph-name="bsuperior" unicode="&#xf6ea;" horiz-adv-x="413" 
d="M250 391c55 0 96 53 96 113c0 48 -29 71 -68 71c-27 0 -52 -15 -70 -33l-27 -122c14 -19 42 -29 69 -29zM161 326h-93l96 434h93l-35 -159c29 33 58 47 95 47c66 0 124 -45 124 -133c0 -110 -74 -197 -168 -197c-45 0 -81 14 -104 46z" />
    <glyph glyph-name="centsuperior" unicode="&#xf6e0;" horiz-adv-x="312" 
d="M188 416l13 59c-60 16 -101 62 -101 127c0 89 70 166 166 171l10 42h62l-11 -49c35 -11 59 -31 72 -54l-66 -43c-5 11 -12 19 -22 25l-34 -154c15 5 28 16 40 29l51 -49c-22 -26 -60 -48 -107 -51l-11 -53h-62zM189 606c0 -29 10 -49 27 -60l34 154
c-36 -12 -61 -50 -61 -94z" />
    <glyph glyph-name="dsuperior" unicode="&#xf6eb;" horiz-adv-x="414" 
d="M269 575c-55 0 -96 -53 -96 -113c0 -48 29 -71 68 -71c27 0 52 15 70 34l27 122c-14 18 -42 28 -69 28zM385 760h92l-96 -434h-93l8 39c-28 -33 -57 -47 -94 -47c-66 0 -125 45 -125 133c0 110 75 197 169 197c44 0 81 -14 104 -46z" />
    <glyph glyph-name="esuperior" unicode="&#xf6ec;" horiz-adv-x="391" 
d="M249 318c-96 0 -170 48 -170 145s79 185 188 185c76 0 149 -46 149 -141c0 -10 -2 -37 -7 -54h-236c-1 -4 -1 -5 -1 -7c0 -29 33 -59 85 -59c29 0 56 7 80 22l26 -57c-32 -23 -71 -34 -114 -34zM333 517v5c0 34 -25 60 -68 60c-48 0 -75 -35 -83 -65h151z" />
    <glyph glyph-name="isuperior" unicode="&#xf6ed;" horiz-adv-x="184" 
d="M190 671c-26 0 -46 21 -46 47c0 33 29 61 62 61c26 0 47 -21 47 -47c0 -33 -29 -61 -63 -61zM156 326h-92l69 314h92z" />
    <glyph glyph-name="lsuperior" unicode="&#xf6ee;" horiz-adv-x="193" 
d="M161 326h-93l96 434h93z" />
    <glyph glyph-name="msuperior" unicode="&#xf6ef;" horiz-adv-x="596" 
d="M563 326h-92l43 193c1 5 2 11 2 16c0 22 -16 35 -43 35c-26 0 -52 -21 -66 -37l-45 -207h-92l42 193c1 5 2 11 2 16c0 22 -15 35 -43 35c-26 0 -50 -21 -65 -37l-45 -207h-93l69 314h93l-9 -39c18 20 53 47 100 47c49 0 85 -23 94 -57c24 30 59 57 107 57
c53 0 93 -28 93 -78c0 -5 0 -12 -2 -20z" />
    <glyph glyph-name="nsuperior" unicode="&#x207f;" horiz-adv-x="412" 
d="M380 326h-93l41 186c1 6 2 13 2 18c0 27 -20 40 -51 40c-30 0 -55 -20 -73 -37l-45 -207h-93l69 314h93l-9 -39c24 23 59 47 105 47c65 0 104 -30 104 -83c0 -6 -1 -18 -4 -30z" />
    <glyph glyph-name="osuperior" unicode="&#xf6f0;" horiz-adv-x="405" 
d="M242 318c-101 0 -163 61 -163 146c0 105 90 184 190 184s162 -61 162 -146c0 -105 -89 -184 -189 -184zM244 392c61 0 93 58 93 111c0 43 -27 69 -70 69c-61 0 -93 -58 -93 -111c0 -42 27 -69 70 -69z" />
    <glyph glyph-name="rsuperior" unicode="&#xf6f1;" horiz-adv-x="258" 
d="M161 326h-93l69 314h93l-9 -40c32 30 68 49 113 49l-18 -83c-7 2 -16 2 -24 2c-30 0 -67 -14 -86 -34z" />
    <glyph glyph-name="ssuperior" unicode="&#xf6f2;" horiz-adv-x="336" 
d="M206 318c-73 0 -119 24 -155 62l49 52c20 -25 64 -51 108 -51c29 0 47 14 47 31c0 50 -161 36 -161 133c0 54 47 103 135 103c59 0 112 -22 138 -52l-46 -50c-21 22 -57 39 -93 39c-27 0 -44 -12 -44 -31c0 -46 163 -25 163 -129c0 -55 -50 -107 -141 -107z" />
    <glyph glyph-name="tsuperior" unicode="&#xf6f3;" horiz-adv-x="235" 
d="M189 318c-47 0 -94 17 -94 70c0 5 1 16 3 23l36 164h-54l14 65h54l19 86h92l-19 -86h66l-14 -65h-66l-32 -147c-1 -5 -2 -10 -2 -14c0 -15 11 -23 28 -23c12 0 20 4 25 8l5 -64c-14 -10 -35 -17 -61 -17z" />
    <glyph glyph-name="parenleftinferior" unicode="&#x208d;" horiz-adv-x="192" 
d="M86 -188l-62 -23c-36 50 -53 124 -53 189c0 132 73 260 170 341l52 -23c-85 -112 -129 -236 -129 -356c0 -40 8 -92 22 -128z" />
    <glyph glyph-name="parenrightinferior" unicode="&#x208e;" horiz-adv-x="192" 
d="M27 296l63 23c36 -50 52 -124 52 -189c0 -132 -72 -260 -169 -341l-52 23c84 112 128 236 128 356c0 40 -8 92 -22 128z" />
    <glyph glyph-name="hyphensuperior" unicode="&#xf6e6;" horiz-adv-x="183" 
d="M240 584h-148l16 72h148z" />
    <glyph glyph-name="colonmonetary" unicode="&#x20a1;" horiz-adv-x="696" 
d="M381 -12c-16 0 -32 1 -48 3l-50 -91h-75l58 104c-19 6 -37 14 -54 22l-70 -126h-76l90 162c-64 52 -103 130 -103 225c0 236 181 391 388 391c19 0 37 -1 54 -4l52 94h76l-61 -110c19 -6 36 -14 52 -23l74 133h76l-97 -174c32 -30 55 -67 70 -105l-136 -46
c-2 6 -5 12 -8 17l-191 -346c53 4 109 33 144 77l110 -74c-77 -98 -188 -129 -275 -129zM202 296c0 -38 9 -73 27 -101l198 357c-123 -4 -225 -112 -225 -256zM278 145c15 -11 33 -18 52 -24l218 395c-15 11 -32 20 -50 26z" />
    <glyph glyph-name="rupiah" unicode="&#xf6dd;" horiz-adv-x="1178" 
d="M553 0h-158l-79 237h-110l-52 -237h-142l147 667h285c108 0 206 -72 206 -188c0 -120 -82 -212 -190 -232zM382 362h1c74 0 119 43 119 103c0 45 -41 77 -85 77h-143l-40 -180h148zM898 -12c-65 0 -122 28 -154 76l-55 -248h-127l148 667h127l-14 -60c41 48 88 72 146 72
c109 0 183 -72 183 -200c0 -145 -90 -307 -254 -307zM877 101c84 0 142 79 142 168c0 69 -45 113 -107 113c-44 0 -84 -25 -110 -58l-38 -167c21 -33 62 -56 113 -56z" />
    <glyph glyph-name="hypheninferior" unicode="&#xf6e5;" horiz-adv-x="183" 
d="M115 17h-148l16 72h148z" />
    <glyph glyph-name="oneeighth" unicode="&#x215b;" horiz-adv-x="867" 
d="M734 667l-574 -667h-76l573 667h77zM807 105c0 -62 -54 -112 -161 -112c-89 0 -181 32 -181 109c0 54 48 103 119 112c-36 13 -68 39 -68 83c0 75 77 109 155 109s172 -31 172 -105c0 -49 -37 -94 -110 -104c37 -13 74 -47 74 -92zM744 287c0 29 -31 46 -70 46
c-37 0 -66 -18 -66 -48c0 -32 42 -47 58 -50c34 3 78 16 78 52zM713 116c0 27 -34 49 -62 56c-46 -3 -89 -24 -89 -57c0 -30 39 -49 76 -49c47 0 75 21 75 50zM231 267h-97l60 273l-80 -66l-44 59l166 134h83z" />
    <glyph glyph-name="threeeighths" unicode="&#x215c;" horiz-adv-x="954" 
d="M822 667l-574 -667h-76l573 667h77zM895 105c0 -62 -54 -112 -161 -112c-89 0 -181 32 -181 109c0 54 48 103 119 112c-36 13 -68 39 -68 83c0 75 77 109 155 109s172 -31 172 -105c0 -49 -37 -94 -110 -104c37 -13 74 -47 74 -92zM832 287c0 29 -31 46 -70 46
c-37 0 -66 -18 -66 -48c0 -32 42 -47 58 -50c34 3 78 16 78 52zM801 116c0 27 -34 49 -62 56c-46 -3 -89 -24 -89 -57c0 -30 39 -49 76 -49c47 0 75 21 75 50zM394 379c0 -58 -57 -119 -158 -119c-80 0 -148 28 -179 73l60 59c27 -38 72 -55 115 -55c45 0 66 25 66 53
s-34 43 -89 43c-10 0 -27 0 -33 -1l16 76c12 -1 49 -2 65 -2c47 0 72 18 72 47s-38 43 -79 43c-38 0 -73 -10 -104 -36l-33 60c37 32 92 53 146 53c99 0 168 -38 168 -106c0 -51 -39 -96 -111 -101c43 -10 78 -39 78 -87z" />
    <glyph glyph-name="fiveeighths" unicode="&#x215d;" horiz-adv-x="948" 
d="M815 667l-574 -667h-76l573 667h77zM888 105c0 -62 -54 -112 -161 -112c-89 0 -181 32 -181 109c0 54 48 103 119 112c-36 13 -68 39 -68 83c0 75 77 109 155 109s172 -31 172 -105c0 -49 -37 -94 -110 -104c37 -13 74 -47 74 -92zM825 287c0 29 -31 46 -70 46
c-37 0 -66 -18 -66 -48c0 -32 42 -47 58 -50c34 3 78 16 78 52zM794 116c0 27 -34 49 -62 56c-46 -3 -89 -24 -89 -57c0 -30 39 -49 76 -49c47 0 75 21 75 50zM400 417c0 -86 -65 -157 -170 -157c-72 0 -142 24 -174 72l64 57c22 -33 60 -52 106 -52c49 0 76 30 76 65
c0 36 -29 54 -71 54c-30 0 -57 -11 -79 -32l-62 21l49 222h290l-17 -77h-193l-20 -93c23 19 49 29 80 29c67 0 121 -43 121 -109z" />
    <glyph glyph-name="seveneighths" unicode="&#x215e;" horiz-adv-x="873" 
d="M740 667l-574 -667h-76l573 667h77zM813 105c0 -62 -54 -112 -161 -112c-89 0 -181 32 -181 109c0 54 48 103 119 112c-36 13 -68 39 -68 83c0 75 77 109 155 109s172 -31 172 -105c0 -49 -37 -94 -110 -104c37 -13 74 -47 74 -92zM750 287c0 29 -31 46 -70 46
c-37 0 -66 -18 -66 -48c0 -32 42 -47 58 -50c34 3 78 16 78 52zM719 116c0 27 -34 49 -62 56c-46 -3 -89 -24 -89 -57c0 -30 39 -49 76 -49c47 0 75 21 75 50zM419 601l-221 -334h-107l221 323h-210l17 77h315z" />
    <glyph glyph-name="onethird" unicode="&#x2153;" horiz-adv-x="867" 
d="M734 667l-574 -667h-76l573 667h77zM804 112c0 -58 -57 -119 -158 -119c-80 0 -148 28 -179 73l60 59c27 -38 72 -55 115 -55c45 0 66 25 66 53s-34 43 -89 43c-10 0 -27 0 -33 -1l16 76c12 -1 49 -2 65 -2c47 0 72 18 72 47s-38 43 -79 43c-38 0 -73 -10 -104 -36
l-33 60c37 32 92 53 146 53c99 0 168 -38 168 -106c0 -51 -39 -96 -111 -101c43 -10 78 -39 78 -87zM231 267h-97l60 273l-80 -66l-44 59l166 134h83z" />
    <glyph glyph-name="twothirds" unicode="&#x2154;" horiz-adv-x="954" 
d="M822 667l-574 -667h-76l573 667h77zM892 112c0 -58 -57 -119 -158 -119c-80 0 -148 28 -179 73l60 59c27 -38 72 -55 115 -55c45 0 66 25 66 53s-34 43 -89 43c-10 0 -27 0 -33 -1l16 76c12 -1 49 -2 65 -2c47 0 72 18 72 47s-38 43 -79 43c-38 0 -73 -10 -104 -36
l-33 60c37 32 92 53 146 53c99 0 168 -38 168 -106c0 -51 -39 -96 -111 -101c43 -10 78 -39 78 -87zM366 267h-315l17 74c199 115 259 157 259 207c0 32 -29 48 -67 48c-45 0 -87 -19 -112 -43l-40 64c40 36 101 56 155 56c91 0 163 -42 163 -116c0 -75 -80 -137 -217 -213
h173z" />
    <glyph glyph-name="zerosuperior" unicode="&#x2070;" 
d="M451 668c0 -94 -56 -254 -202 -254c-101 0 -156 69 -156 160c0 93 56 253 203 253c101 0 155 -68 155 -159zM355 671c0 54 -21 79 -62 79c-75 0 -104 -120 -104 -180c0 -54 22 -79 63 -79c75 0 103 120 103 180z" />
    <glyph glyph-name="foursuperior" unicode="&#x2074;" 
d="M422 507h-53l-18 -86h-96l19 86h-197l15 65l213 249h134l-53 -239h52zM291 582l34 154l-135 -154h101z" />
    <glyph glyph-name="fivesuperior" unicode="&#x2075;" 
d="M425 571c0 -86 -65 -157 -170 -157c-72 0 -142 24 -174 72l64 57c22 -33 60 -52 106 -52c49 0 76 30 76 65c0 36 -29 54 -71 54c-30 0 -57 -11 -79 -32l-62 21l49 222h290l-17 -77h-193l-20 -93c23 19 49 29 80 29c67 0 121 -43 121 -109z" />
    <glyph glyph-name="sixsuperior" unicode="&#x2076;" 
d="M430 568c0 -82 -63 -154 -169 -154s-166 60 -166 155c0 141 98 258 221 258c48 0 102 -14 138 -47l-53 -64c-19 21 -47 34 -88 34c-76 0 -118 -80 -118 -113v-4c24 27 62 53 105 53c70 0 130 -44 130 -118zM332 556c0 36 -31 55 -73 55c-27 0 -50 -13 -69 -35
c-2 -5 -2 -13 -2 -18c0 -40 27 -67 72 -67c43 0 72 31 72 65z" />
    <glyph glyph-name="sevensuperior" unicode="&#x2077;" horiz-adv-x="371" 
d="M444 755l-221 -334h-107l221 323h-210l17 77h315z" />
    <glyph glyph-name="eightsuperior" unicode="&#x2078;" 
d="M422 526c0 -62 -54 -112 -161 -112c-89 0 -181 32 -181 109c0 54 48 103 119 112c-36 13 -68 39 -68 83c0 75 77 109 155 109s172 -31 172 -105c0 -49 -37 -94 -110 -104c37 -13 74 -47 74 -92zM359 708c0 29 -31 46 -70 46c-37 0 -66 -18 -66 -48c0 -32 42 -47 58 -50
c34 3 78 16 78 52zM328 537c0 27 -34 49 -62 56c-46 -3 -89 -24 -89 -57c0 -30 39 -49 76 -49c47 0 75 21 75 50z" />
    <glyph glyph-name="ninesuperior" unicode="&#x2079;" 
d="M117 674c0 82 63 154 169 154s166 -60 166 -155c0 -141 -98 -258 -221 -258c-48 0 -102 14 -139 47l54 64c19 -21 47 -34 88 -34c76 0 118 80 118 114v3c-24 -27 -63 -53 -105 -53c-70 0 -130 44 -130 118zM215 686c0 -36 31 -55 73 -55c27 0 49 13 69 35c2 5 2 13 2 18
c0 40 -27 67 -72 67c-43 0 -72 -31 -72 -65z" />
    <glyph glyph-name="zeroinferior" unicode="&#x2080;" 
d="M335 101c0 -94 -56 -254 -202 -254c-101 0 -156 69 -156 160c0 93 56 253 203 253c101 0 155 -68 155 -159zM239 104c0 54 -21 79 -62 79c-75 0 -104 -120 -104 -180c0 -54 22 -79 63 -79c75 0 103 120 103 180z" />
    <glyph glyph-name="oneinferior" unicode="&#x2081;" horiz-adv-x="286" 
d="M140 -146h-97l60 273l-80 -66l-44 59l166 134h83z" />
    <glyph glyph-name="twoinferior" unicode="&#x2082;" 
d="M275 -146h-315l17 74c199 115 259 157 259 207c0 32 -29 48 -67 48c-45 0 -87 -19 -112 -43l-40 64c40 36 101 56 155 56c91 0 163 -42 163 -116c0 -75 -80 -137 -217 -213h173z" />
    <glyph glyph-name="threeinferior" unicode="&#x2083;" 
d="M303 -34c0 -58 -57 -119 -158 -119c-80 0 -148 28 -179 73l60 59c27 -38 72 -55 115 -55c45 0 66 25 66 53s-34 43 -89 43c-10 0 -27 0 -33 -1l16 76c12 -1 49 -2 65 -2c47 0 72 18 72 47s-38 43 -79 43c-38 0 -73 -10 -104 -36l-33 60c37 32 92 53 146 53
c99 0 168 -38 168 -106c0 -51 -39 -96 -111 -101c43 -10 78 -39 78 -87z" />
    <glyph glyph-name="fourinferior" unicode="&#x2084;" 
d="M306 -60h-53l-18 -86h-96l19 86h-197l15 65l213 249h134l-53 -239h52zM175 15l34 154l-135 -154h101z" />
    <glyph glyph-name="fiveinferior" unicode="&#x2085;" 
d="M309 4c0 -86 -65 -157 -170 -157c-72 0 -142 24 -174 72l64 57c22 -33 60 -52 106 -52c49 0 76 30 76 65c0 36 -29 54 -71 54c-30 0 -57 -11 -79 -32l-62 21l49 222h290l-17 -77h-193l-20 -93c23 19 49 29 80 29c67 0 121 -43 121 -109z" />
    <glyph glyph-name="sixinferior" unicode="&#x2086;" 
d="M314 1c0 -82 -63 -154 -169 -154s-166 60 -166 155c0 141 98 258 221 258c48 0 102 -14 138 -47l-53 -64c-19 21 -47 34 -88 34c-76 0 -118 -80 -118 -113v-4c24 27 62 53 105 53c70 0 130 -44 130 -118zM216 -11c0 36 -31 55 -73 55c-27 0 -50 -13 -69 -35
c-2 -5 -2 -13 -2 -18c0 -40 27 -67 72 -67c43 0 72 31 72 65z" />
    <glyph glyph-name="seveninferior" unicode="&#x2087;" horiz-adv-x="371" 
d="M328 188l-221 -334h-107l221 323h-210l17 77h315z" />
    <glyph glyph-name="eightinferior" unicode="&#x2088;" 
d="M306 -41c0 -62 -54 -112 -161 -112c-89 0 -181 32 -181 109c0 54 48 103 119 112c-36 13 -68 39 -68 83c0 75 77 109 155 109s172 -31 172 -105c0 -49 -37 -94 -110 -104c37 -13 74 -47 74 -92zM243 141c0 29 -31 46 -70 46c-37 0 -66 -18 -66 -48c0 -32 42 -47 58 -50
c34 3 78 16 78 52zM212 -30c0 27 -34 49 -62 56c-46 -3 -89 -24 -89 -57c0 -30 39 -49 76 -49c47 0 75 21 75 50z" />
    <glyph glyph-name="nineinferior" unicode="&#x2089;" 
d="M1 107c0 82 63 154 169 154s166 -60 166 -155c0 -141 -98 -258 -221 -258c-48 0 -102 14 -139 47l54 64c19 -21 47 -34 88 -34c76 0 118 80 118 114v3c-24 -27 -63 -53 -105 -53c-70 0 -130 44 -130 118zM99 119c0 -36 31 -55 73 -55c27 0 49 13 69 35c2 5 2 13 2 18
c0 40 -27 67 -72 67c-43 0 -72 -31 -72 -65z" />
    <glyph glyph-name="centinferior" unicode="&#xf6df;" horiz-adv-x="312" 
d="M63 -151l13 60c-60 16 -101 61 -101 126c0 89 70 166 166 171l10 42h62l-11 -49c35 -11 59 -31 72 -54l-66 -43c-5 11 -12 19 -22 25l-34 -153c15 5 28 15 40 28l51 -49c-22 -26 -60 -48 -107 -51l-11 -53h-62zM64 39c0 -29 10 -48 27 -59l34 153
c-36 -12 -61 -50 -61 -94z" />
    <glyph glyph-name="dollarinferior" unicode="&#xf6e3;" horiz-adv-x="383" 
d="M140 -153h-1l-11 -53h-62l13 59c-58 10 -103 36 -126 68l64 59c18 -25 46 -45 78 -54l20 93c-56 19 -117 44 -117 113c0 63 60 128 164 128h6l13 55h62l-14 -64c43 -11 80 -32 103 -58l-64 -53c-13 16 -32 31 -55 40l-20 -89c55 -19 114 -45 114 -110
c0 -71 -52 -134 -167 -134zM101 149c0 -16 14 -27 35 -37l17 78c-31 -3 -52 -18 -52 -41zM204 -37c0 16 -13 26 -31 35l-18 -78c33 4 49 21 49 43z" />
    <glyph glyph-name="periodinferior" unicode="&#xf6e7;" horiz-adv-x="158" 
d="M57 -92c0 -31 -29 -58 -60 -58c-28 0 -48 20 -48 48c0 31 28 58 60 58c28 0 48 -20 48 -48z" />
    <glyph glyph-name="commainferior" unicode="&#xf6e1;" horiz-adv-x="157" 
d="M53 -94c0 -40 -31 -101 -92 -133l-28 32c18 8 51 30 59 50c0 0 -4 -1 -6 -1c-18 0 -39 16 -39 45c0 32 28 57 59 57c25 0 47 -18 47 -50z" />
    <glyph glyph-name="notequal" unicode="&#x2260;" horiz-adv-x="504" 
d="M105 93h-80l92 108h-98l18 78h147l95 110h-218l17 79h269l91 106h81l-92 -106h97l-17 -79h-148l-94 -110h218l-17 -78h-268z" />
    <glyph glyph-name="infinity" unicode="&#x221e;" horiz-adv-x="690" 
d="M192 159c-92 0 -147 56 -147 145c0 100 67 209 187 209c68 0 124 -34 150 -102c39 56 87 102 155 102c92 0 146 -58 146 -147c0 -99 -66 -207 -187 -207c-67 0 -123 33 -149 101c-39 -57 -87 -101 -155 -101zM493 237c62 0 106 51 106 117c0 49 -36 80 -81 80
c-50 0 -88 -47 -117 -103c8 -60 43 -94 92 -94zM212 237c50 0 89 46 117 103c-7 60 -43 94 -92 94c-62 0 -106 -51 -106 -117c0 -49 36 -80 81 -80z" />
    <glyph glyph-name="lessequal" unicode="&#x2264;" horiz-adv-x="504" 
d="M445 110l-402 198l20 92l491 200l-22 -98l-389 -152l322 -151zM421 0h-446l17 79h446z" />
    <glyph glyph-name="greaterequal" unicode="&#x2265;" horiz-adv-x="504" 
d="M489 308l-491 -198l22 97l389 150l-322 153l20 90l402 -200zM421 0h-446l17 79h446z" />
    <glyph glyph-name="partialdiff" unicode="&#x2202;" horiz-adv-x="575" 
d="M269 -12c-147 0 -248 84 -248 210c0 146 110 262 247 262c76 0 135 -37 164 -109c-21 95 -127 200 -224 272l90 93c169 -129 254 -265 254 -410c0 -172 -107 -318 -283 -318zM271 101c79 0 138 63 138 145c0 52 -39 102 -119 102c-77 0 -134 -64 -134 -143
c0 -64 41 -104 115 -104z" />
    <glyph glyph-name="summation" unicode="&#x2211;" horiz-adv-x="586" 
d="M434 291l-149 251h321l28 125h-495l-27 -124l147 -247l-260 -261l-28 -125h496l27 125h-318z" />
    <glyph glyph-name="product" unicode="&#x220f;" horiz-adv-x="788" 
d="M585 -90h-143l140 632h-244l-140 -632h-142l139 632h-104l27 125h738l-28 -125h-104z" />
    <glyph glyph-name="pi" unicode="&#x3c0;" horiz-adv-x="621" 
d="M472 0h-128l86 388h-175l-85 -388h-129l86 388h-70l24 112h571l-24 -112h-70z" />
    <glyph glyph-name="integral" unicode="&#x222b;" horiz-adv-x="373" 
d="M1 -100h-60l18 85h61c41 0 70 30 79 75l122 548c24 105 87 160 191 160h60l-19 -85h-61c-41 0 -69 -30 -79 -74l-122 -550c-23 -105 -86 -159 -190 -159z" />
    <glyph glyph-name="Omega" unicode="&#x3a9;" horiz-adv-x="765" 
d="M-2 0l28 125h136c-64 53 -106 124 -106 217c0 159 131 336 375 336c186 0 332 -102 332 -278c0 -128 -84 -217 -185 -275h109l-27 -125h-269l12 57l15 68c116 26 192 127 192 247c0 107 -69 179 -185 179c-142 0 -231 -124 -231 -253c0 -82 38 -140 101 -173l-28 -125
h-269z" />
    <glyph glyph-name="Omega" unicode="&#x2126;" horiz-adv-x="765" 
d="M-2 0l28 125h136c-64 53 -106 124 -106 217c0 159 131 336 375 336c186 0 332 -102 332 -278c0 -128 -84 -217 -185 -275h109l-27 -125h-269l12 57l15 68c116 26 192 127 192 247c0 107 -69 179 -185 179c-142 0 -231 -124 -231 -253c0 -82 38 -140 101 -173l-28 -125
h-269z" />
    <glyph glyph-name="radical" unicode="&#x221a;" horiz-adv-x="682" 
d="M350 0h-84l-46 302l-141 -47l-7 76l225 72l39 -276l317 540h97z" />
    <glyph glyph-name="approxequal" unicode="&#x2248;" horiz-adv-x="504" 
d="M19 201l19 85c29 -20 68 -30 105 -30c95 0 122 52 234 52c37 0 80 -9 107 -23l-19 -86c-29 20 -69 30 -106 30c-95 0 -122 -51 -234 -51c-37 0 -79 8 -106 23zM60 383l19 86c29 -20 67 -30 104 -30c95 0 122 52 234 52c38 0 80 -9 107 -23l-18 -86c-30 20 -69 30 -106 30
c-95 0 -122 -51 -234 -51c-37 0 -79 8 -106 22z" />
    <glyph glyph-name="Delta" unicode="&#x394;" horiz-adv-x="684" 
d="M634 0h-692l404 667h178zM468 125l-57 400l-234 -400h291z" />
    <glyph glyph-name="Delta" unicode="&#x2206;" horiz-adv-x="684" 
d="M634 0h-692l404 667h178zM468 125l-57 400l-234 -400h291z" />
    <glyph glyph-name="nbspace" unicode="&#xa0;" horiz-adv-x="257" 
 />
    <glyph glyph-name="lozenge" unicode="&#x25ca;" horiz-adv-x="375" 
d="M144 0h-21l-84 334l231 333h21l85 -333zM142 45l197 293l-67 284l-196 -292z" />
    <glyph glyph-name="Euro" unicode="&#x20ac;" horiz-adv-x="709" 
d="M400 -12c-162 0 -293 91 -322 237h-61l17 79h38c1 21 3 41 7 61h-31l18 79h36c60 145 201 234 358 234c163 0 257 -88 296 -189l-136 -46c-26 71 -90 109 -167 109c-78 0 -148 -42 -191 -108h255l-18 -79h-270c-4 -20 -8 -40 -8 -61h265l-18 -79h-235
c26 -67 88 -111 175 -111c57 0 119 30 157 77l110 -74c-77 -98 -188 -129 -275 -129z" />
    <glyph glyph-name="uni2318" unicode="&#x2318;" horiz-adv-x="667" 
d="M198 153l15 67h-73c-40 0 -75 -34 -75 -74c0 -33 23 -59 56 -59c41 0 68 26 77 66zM263 447l13 57c1 6 2 12 2 18c0 35 -24 58 -59 58c-41 0 -75 -31 -75 -73c0 -37 27 -60 64 -60h55zM269 265h137l31 137h-137zM561 160c0 37 -27 60 -64 60h-55l-12 -57
c-2 -6 -2 -13 -2 -18c0 -35 23 -58 58 -58c42 0 75 31 75 73zM641 521c0 33 -24 59 -57 59c-40 0 -68 -26 -77 -66l-14 -67h73c39 0 75 35 75 74zM607 160c0 -65 -63 -118 -128 -118c-56 0 -98 42 -98 98c0 10 1 19 3 29l12 51h-137l-17 -75c-14 -61 -64 -103 -125 -103
c-55 0 -99 42 -99 97c0 65 59 126 125 126h80l31 137h-55c-61 0 -100 44 -100 105c0 65 62 118 127 118c56 0 98 -42 98 -98c0 -10 -1 -19 -3 -29l-12 -51h137l17 75c14 61 64 103 125 103c55 0 100 -42 100 -97c0 -66 -59 -126 -125 -126h-80l-31 -137h52
c61 0 103 -44 103 -105z" />
    <glyph glyph-name="uni2318" unicode="&#xf8ff;" horiz-adv-x="667" 
d="M198 153l15 67h-73c-40 0 -75 -34 -75 -74c0 -33 23 -59 56 -59c41 0 68 26 77 66zM263 447l13 57c1 6 2 12 2 18c0 35 -24 58 -59 58c-41 0 -75 -31 -75 -73c0 -37 27 -60 64 -60h55zM269 265h137l31 137h-137zM561 160c0 37 -27 60 -64 60h-55l-12 -57
c-2 -6 -2 -13 -2 -18c0 -35 23 -58 58 -58c42 0 75 31 75 73zM641 521c0 33 -24 59 -57 59c-40 0 -68 -26 -77 -66l-14 -67h73c39 0 75 35 75 74zM607 160c0 -65 -63 -118 -128 -118c-56 0 -98 42 -98 98c0 10 1 19 3 29l12 51h-137l-17 -75c-14 -61 -64 -103 -125 -103
c-55 0 -99 42 -99 97c0 65 59 126 125 126h80l31 137h-55c-61 0 -100 44 -100 105c0 65 62 118 127 118c56 0 98 -42 98 -98c0 -10 -1 -19 -3 -29l-12 -51h137l17 75c14 61 64 103 125 103c55 0 100 -42 100 -97c0 -66 -59 -126 -125 -126h-80l-31 -137h52
c61 0 103 -44 103 -105z" />
    <glyph glyph-name="f.alt1" horiz-adv-x="327" 
d="M165 0h-127l82 372h-80l25 111h79l4 20c24 111 85 174 181 174c39 0 77 -8 108 -27l-46 -91c-12 10 -29 14 -46 14c-37 0 -57 -23 -69 -70l-5 -20h99l-25 -111h-98z" />
    <glyph glyph-name="l.alt1" horiz-adv-x="298" 
d="M177 -12c-91 0 -144 38 -144 103c0 11 1 23 3 35l120 541h127l-112 -507c-1 -7 -2 -13 -2 -21c0 -23 19 -38 47 -38c14 0 30 5 36 10l4 -102c-14 -11 -43 -21 -79 -21z" />
    <glyph glyph-name="a.alt1" horiz-adv-x="543" 
d="M435 0h-127l10 49c-36 -37 -82 -61 -144 -61c-82 0 -159 46 -159 140c0 110 83 176 179 176c70 0 122 -20 166 -65l13 55c1 4 2 16 2 23c0 44 -47 73 -113 73c-50 0 -95 -17 -134 -46l-30 92c56 40 122 59 191 59c114 0 216 -43 216 -153c0 -11 -3 -39 -6 -52zM232 74
c44 0 77 16 101 40l13 59c-19 28 -61 46 -109 46c-56 0 -92 -34 -92 -81c0 -42 34 -64 87 -64z" />
    <glyph glyph-name="y.alt1" horiz-adv-x="579" 
d="M206 -196c-100 0 -178 25 -234 84l75 84c31 -43 98 -64 157 -64c82 0 120 46 138 124l11 50c-41 -36 -88 -73 -161 -73c-85 0 -151 41 -151 123c0 9 1 20 5 40l70 311h127l-61 -272c-2 -11 -3 -23 -3 -28c0 -49 40 -61 82 -61c45 0 85 28 113 56l68 305h127l-100 -451
c-30 -133 -112 -228 -263 -228z" />
    <glyph glyph-name="G.alt1" horiz-adv-x="720" 
d="M356 -12c-174 0 -312 120 -312 299c0 237 182 391 405 391c138 0 235 -82 271 -165l-130 -56c-23 55 -89 95 -159 95c-129 0 -238 -111 -238 -256c0 -106 73 -182 180 -182c95 0 160 59 189 131h-208l28 125h358c-41 -252 -180 -382 -384 -382z" />
    <glyph glyph-name="G.smcp.alt1" horiz-adv-x="632" 
d="M311 -12c-161 0 -279 99 -279 250c0 188 156 324 332 324c108 0 193 -54 234 -133l-118 -53c-20 41 -70 69 -123 69c-101 0 -189 -86 -189 -195c0 -91 67 -146 155 -146c62 0 120 37 141 97h-163l23 109h298c-26 -203 -157 -322 -311 -322z" />
    <glyph glyph-name="Gbreve.alt1" horiz-adv-x="734" 
d="M689 803c-52 -54 -122 -88 -194 -88c-71 0 -128 34 -157 88l64 47c19 -37 55 -62 106 -62c50 0 96 23 133 62zM356 -12c-174 0 -312 120 -312 299c0 237 182 391 405 391c138 0 235 -82 271 -165l-130 -56c-23 55 -89 95 -159 95c-129 0 -238 -111 -238 -256
c0 -106 73 -182 180 -182c95 0 160 59 189 131h-208l28 125h358c-41 -252 -180 -382 -384 -382z" />
    <glyph glyph-name="Gbreve.smcp.alt1" horiz-adv-x="627" 
d="M608 684c-52 -54 -122 -88 -194 -88c-71 0 -128 34 -157 88l64 47c19 -37 55 -62 106 -62c50 0 96 23 133 62zM311 -12c-161 0 -279 99 -279 250c0 188 156 324 332 324c108 0 193 -54 234 -133l-118 -53c-20 41 -70 69 -123 69c-101 0 -189 -86 -189 -195
c0 -91 67 -146 155 -146c62 0 120 37 141 97h-163l23 109h298c-26 -203 -157 -322 -311 -322z" />
    <glyph glyph-name="Gcommaaccent.alt1" horiz-adv-x="734" 
d="M377 -121c0 -61 -52 -128 -118 -161l-35 37c30 14 67 42 80 70h-9c-26 0 -48 18 -48 51c0 37 34 68 69 68c32 0 61 -22 61 -65zM356 -12c-174 0 -312 120 -312 299c0 237 182 391 405 391c138 0 235 -82 271 -165l-130 -56c-23 55 -89 95 -159 95
c-129 0 -238 -111 -238 -256c0 -106 73 -182 180 -182c95 0 160 59 189 131h-208l28 125h358c-41 -252 -180 -382 -384 -382z" />
    <glyph glyph-name="Gcommaaccent.smcp.alt1" horiz-adv-x="632" 
d="M322 -121c0 -61 -52 -128 -118 -161l-35 37c30 14 67 42 80 70h-9c-26 0 -48 18 -48 51c0 37 34 68 69 68c32 0 61 -22 61 -65zM311 -12c-161 0 -279 99 -279 250c0 188 156 324 332 324c108 0 193 -54 234 -133l-118 -53c-20 41 -70 69 -123 69
c-101 0 -189 -86 -189 -195c0 -91 67 -146 155 -146c62 0 120 37 141 97h-163l23 109h298c-26 -203 -157 -322 -311 -322z" />
    <glyph glyph-name="lslash.alt1" horiz-adv-x="325" 
d="M-1 204l21 93l91 46l72 324h127l-55 -251l93 48l-20 -92l-94 -48l-36 -164c-1 -7 -2 -13 -2 -21c0 -23 19 -38 47 -38c14 0 30 5 36 10l4 -102c-14 -11 -43 -21 -79 -21c-91 0 -144 38 -144 103c0 11 1 23 3 35l27 125z" />
    <glyph glyph-name="lacute.alt1" horiz-adv-x="298" 
d="M435 872l-194 -144h-91l166 144h119zM177 -12c-91 0 -144 38 -144 103c0 11 1 23 3 35l120 541h127l-112 -507c-1 -7 -2 -13 -2 -21c0 -23 19 -38 47 -38c14 0 30 5 36 10l4 -102c-14 -11 -43 -21 -79 -21z" />
    <glyph glyph-name="lcommaaccent.alt1" horiz-adv-x="298" 
d="M122 -121c0 -61 -52 -128 -118 -161l-35 37c30 14 67 42 80 70h-9c-26 0 -48 18 -48 51c0 37 34 68 69 68c32 0 61 -22 61 -65zM177 -12c-91 0 -144 38 -144 103c0 11 1 23 3 35l120 541h127l-112 -507c-1 -7 -2 -13 -2 -21c0 -23 19 -38 47 -38c14 0 30 5 36 10l4 -102
c-14 -11 -43 -21 -79 -21z" />
    <glyph glyph-name="lcaron.alt1" horiz-adv-x="357" 
d="M458 616c0 -61 -52 -128 -118 -161l-35 37c30 14 67 42 80 70h-9c-26 0 -48 18 -48 51c0 37 34 68 69 68c32 0 61 -22 61 -65zM177 -12c-91 0 -144 38 -144 103c0 11 1 23 3 35l120 541h127l-112 -507c-1 -7 -2 -13 -2 -21c0 -23 19 -38 47 -38c14 0 30 5 36 10l4 -102
c-14 -11 -43 -21 -79 -21z" />
    <glyph glyph-name="aacute.alt1" horiz-adv-x="543" 
d="M551 700l-194 -144h-91l166 144h119zM435 0h-127l10 49c-36 -37 -82 -61 -144 -61c-82 0 -159 46 -159 140c0 110 83 176 179 176c70 0 122 -20 166 -65l13 55c1 4 2 16 2 23c0 44 -47 73 -113 73c-50 0 -95 -17 -134 -46l-30 92c56 40 122 59 191 59
c114 0 216 -43 216 -153c0 -11 -3 -39 -6 -52zM232 74c44 0 77 16 101 40l13 59c-19 28 -61 46 -109 46c-56 0 -92 -34 -92 -81c0 -42 34 -64 87 -64z" />
    <glyph glyph-name="agrave.alt1" horiz-adv-x="543" 
d="M428 556h-89l-130 144h117zM435 0h-127l10 49c-36 -37 -82 -61 -144 -61c-82 0 -159 46 -159 140c0 110 83 176 179 176c70 0 122 -20 166 -65l13 55c1 4 2 16 2 23c0 44 -47 73 -113 73c-50 0 -95 -17 -134 -46l-30 92c56 40 122 59 191 59c114 0 216 -43 216 -153
c0 -11 -3 -39 -6 -52zM232 74c44 0 77 16 101 40l13 59c-19 28 -61 46 -109 46c-56 0 -92 -34 -92 -81c0 -42 34 -64 87 -64z" />
    <glyph glyph-name="acircumflex.alt1" horiz-adv-x="543" 
d="M499 556h-76l-54 89l-90 -89h-80l124 144h114zM435 0h-127l10 49c-36 -37 -82 -61 -144 -61c-82 0 -159 46 -159 140c0 110 83 176 179 176c70 0 122 -20 166 -65l13 55c1 4 2 16 2 23c0 44 -47 73 -113 73c-50 0 -95 -17 -134 -46l-30 92c56 40 122 59 191 59
c114 0 216 -43 216 -153c0 -11 -3 -39 -6 -52zM232 74c44 0 77 16 101 40l13 59c-19 28 -61 46 -109 46c-56 0 -92 -34 -92 -81c0 -42 34 -64 87 -64z" />
    <glyph glyph-name="adieresis.alt1" horiz-adv-x="543" 
d="M531 619c0 -40 -37 -76 -77 -76c-34 0 -60 26 -60 60c0 40 37 76 76 76c35 0 61 -26 61 -60zM319 619c0 -40 -36 -76 -76 -76c-34 0 -60 26 -60 60c0 40 37 76 76 76c35 0 60 -26 60 -60zM435 0h-127l10 49c-36 -37 -82 -61 -144 -61c-82 0 -159 46 -159 140
c0 110 83 176 179 176c70 0 122 -20 166 -65l13 55c1 4 2 16 2 23c0 44 -47 73 -113 73c-50 0 -95 -17 -134 -46l-30 92c56 40 122 59 191 59c114 0 216 -43 216 -153c0 -11 -3 -39 -6 -52zM232 74c44 0 77 16 101 40l13 59c-19 28 -61 46 -109 46c-56 0 -92 -34 -92 -81
c0 -42 34 -64 87 -64z" />
    <glyph glyph-name="atilde.alt1" horiz-adv-x="543" 
d="M417 554c-70 0 -74 68 -120 68c-20 0 -36 -19 -45 -62h-68c17 85 51 134 121 134s75 -67 121 -67c20 0 35 19 45 61h68c-18 -85 -52 -134 -122 -134zM435 0h-127l10 49c-36 -37 -82 -61 -144 -61c-82 0 -159 46 -159 140c0 110 83 176 179 176c70 0 122 -20 166 -65
l13 55c1 4 2 16 2 23c0 44 -47 73 -113 73c-50 0 -95 -17 -134 -46l-30 92c56 40 122 59 191 59c114 0 216 -43 216 -153c0 -11 -3 -39 -6 -52zM232 74c44 0 77 16 101 40l13 59c-19 28 -61 46 -109 46c-56 0 -92 -34 -92 -81c0 -42 34 -64 87 -64z" />
    <glyph glyph-name="aring.alt1" horiz-adv-x="543" 
d="M358 547c-57 0 -96 39 -96 96c0 62 53 115 115 115c57 0 96 -39 96 -96c0 -62 -53 -115 -115 -115zM363 606c27 0 51 23 51 50c0 25 -17 43 -42 43c-27 0 -51 -23 -51 -50c0 -25 17 -43 42 -43zM435 0h-127l10 49c-36 -37 -82 -61 -144 -61c-82 0 -159 46 -159 140
c0 110 83 176 179 176c70 0 122 -20 166 -65l13 55c1 4 2 16 2 23c0 44 -47 73 -113 73c-50 0 -95 -17 -134 -46l-30 92c56 40 122 59 191 59c114 0 216 -43 216 -153c0 -11 -3 -39 -6 -52zM232 74c44 0 77 16 101 40l13 59c-19 28 -61 46 -109 46c-56 0 -92 -34 -92 -81
c0 -42 34 -64 87 -64z" />
    <glyph glyph-name="amacron.alt1" horiz-adv-x="543" 
d="M533 591h-362l16 73h362zM435 0h-127l10 49c-36 -37 -82 -61 -144 -61c-82 0 -159 46 -159 140c0 110 83 176 179 176c70 0 122 -20 166 -65l13 55c1 4 2 16 2 23c0 44 -47 73 -113 73c-50 0 -95 -17 -134 -46l-30 92c56 40 122 59 191 59c114 0 216 -43 216 -153
c0 -11 -3 -39 -6 -52zM232 74c44 0 77 16 101 40l13 59c-19 28 -61 46 -109 46c-56 0 -92 -34 -92 -81c0 -42 34 -64 87 -64z" />
    <glyph glyph-name="abreve.alt1" horiz-adv-x="543" 
d="M539 644c-52 -54 -122 -88 -194 -88c-71 0 -128 34 -157 88l64 47c19 -37 55 -62 106 -62c50 0 96 23 133 62zM435 0h-127l10 49c-36 -37 -82 -61 -144 -61c-82 0 -159 46 -159 140c0 110 83 176 179 176c70 0 122 -20 166 -65l13 55c1 4 2 16 2 23c0 44 -47 73 -113 73
c-50 0 -95 -17 -134 -46l-30 92c56 40 122 59 191 59c114 0 216 -43 216 -153c0 -11 -3 -39 -6 -52zM232 74c44 0 77 16 101 40l13 59c-19 28 -61 46 -109 46c-56 0 -92 -34 -92 -81c0 -42 34 -64 87 -64z" />
    <glyph glyph-name="aogonek.alt1" horiz-adv-x="543" 
d="M435 0c-60 -26 -94 -60 -94 -99c0 -22 14 -33 35 -33c20 0 35 13 47 33l43 -36c-23 -30 -52 -51 -94 -51c-50 0 -94 25 -94 76c0 41 21 80 60 110h-30l10 49c-36 -37 -82 -61 -144 -61c-82 0 -159 46 -159 140c0 110 83 176 179 176c70 0 122 -20 166 -65l13 55
c1 4 2 16 2 23c0 44 -47 73 -113 73c-50 0 -95 -17 -134 -46l-30 92c56 40 122 59 191 59c114 0 216 -43 216 -153c0 -11 -3 -39 -6 -52zM232 74c44 0 77 16 101 40l13 59c-19 28 -61 46 -109 46c-56 0 -92 -34 -92 -81c0 -42 34 -64 87 -64z" />
    <glyph glyph-name="yacute.alt1" horiz-adv-x="579" 
d="M559 700l-194 -144h-91l166 144h119zM206 -196c-100 0 -178 25 -234 84l75 84c31 -43 98 -64 157 -64c82 0 120 46 138 124l11 50c-41 -36 -88 -73 -161 -73c-85 0 -151 41 -151 123c0 9 1 20 5 40l70 311h127l-61 -272c-2 -11 -3 -23 -3 -28c0 -49 40 -61 82 -61
c45 0 85 28 113 56l68 305h127l-100 -451c-30 -133 -112 -228 -263 -228z" />
    <glyph glyph-name="ydieresis.alt1" horiz-adv-x="579" 
d="M542 619c0 -40 -37 -76 -77 -76c-34 0 -60 26 -60 60c0 40 37 76 76 76c35 0 61 -26 61 -60zM330 619c0 -40 -36 -76 -76 -76c-34 0 -60 26 -60 60c0 40 37 76 76 76c35 0 60 -26 60 -60zM206 -196c-100 0 -178 25 -234 84l75 84c31 -43 98 -64 157 -64
c82 0 120 46 138 124l11 50c-41 -36 -88 -73 -161 -73c-85 0 -151 41 -151 123c0 9 1 20 5 40l70 311h127l-61 -272c-2 -11 -3 -23 -3 -28c0 -49 40 -61 82 -61c45 0 85 28 113 56l68 305h127l-100 -451c-30 -133 -112 -228 -263 -228z" />
    <glyph glyph-name="ae.alt1" horiz-adv-x="880" 
d="M841 200h-358c-1 -1 -1 -8 -1 -13c0 -42 47 -95 133 -95c39 0 89 10 122 35l39 -89c-41 -31 -97 -50 -160 -50c-99 0 -167 34 -210 96c-59 -56 -132 -96 -221 -96c-86 0 -170 44 -170 140c0 114 87 176 179 176c69 0 131 -24 166 -63l12 53c2 9 3 16 3 23
c0 45 -49 73 -113 73c-51 0 -93 -17 -134 -46l-30 92c56 41 122 59 191 59c84 0 148 -28 166 -97c39 55 102 97 190 97c111 0 206 -73 206 -215c0 -29 -8 -70 -10 -80zM498 288h239c1 4 1 7 1 11c0 51 -45 92 -110 92c-78 0 -116 -53 -130 -103zM348 132c-2 8 -3 22 -3 32v9
c-18 29 -66 46 -108 46c-51 0 -92 -31 -92 -81c0 -42 36 -64 87 -64c40 0 83 17 116 58z" />
    <glyph glyph-name="zero.pzero" horiz-adv-x="620" 
d="M284 -12c-64 0 -118 19 -159 54l-37 -42h-102l91 104c-22 41 -34 92 -34 153c0 216 135 420 332 420c63 0 117 -18 157 -53l38 43h102l-91 -104c22 -41 34 -93 34 -154c0 -216 -134 -421 -331 -421zM297 114c111 0 174 173 174 302c0 7 -1 14 -1 20l-253 -289
c18 -21 44 -33 80 -33zM187 250v-20l253 289c-18 20 -44 32 -79 32c-111 0 -174 -172 -174 -301z" />
    <glyph glyph-name="Gcircumflex.alt1" horiz-adv-x="734" 
d="M644 728h-76l-54 89l-90 -89h-80l124 144h114zM356 -12c-174 0 -312 120 -312 299c0 237 182 391 405 391c138 0 235 -82 271 -165l-130 -56c-23 55 -89 95 -159 95c-129 0 -238 -111 -238 -256c0 -106 73 -182 180 -182c95 0 160 59 189 131h-208l28 125h358
c-41 -252 -180 -382 -384 -382z" />
    <glyph glyph-name="Gdotaccent.alt1" horiz-adv-x="734" 
d="M575 791c0 -40 -37 -75 -77 -75c-34 0 -60 26 -60 60c0 40 37 76 77 76c34 0 60 -26 60 -61zM356 -12c-174 0 -312 120 -312 299c0 237 182 391 405 391c138 0 235 -82 271 -165l-130 -56c-23 55 -89 95 -159 95c-129 0 -238 -111 -238 -256c0 -106 73 -182 180 -182
c95 0 160 59 189 131h-208l28 125h358c-41 -252 -180 -382 -384 -382z" />
    <glyph glyph-name="Gcircumflex.smcp.alt1" horiz-adv-x="616" 
d="M311 -12c-161 0 -279 99 -279 250c0 188 156 324 332 324c108 0 193 -54 234 -133l-118 -53c-20 41 -70 69 -123 69c-101 0 -189 -86 -189 -195c0 -91 67 -146 155 -146c62 0 120 37 141 97h-163l23 109h298c-26 -203 -157 -322 -311 -322zM557 606h-76l-54 89l-90 -89
h-80l124 144h114z" />
    <glyph glyph-name="Gdotaccent.smcp.alt1" horiz-adv-x="616" 
d="M311 -12c-161 0 -279 99 -279 250c0 188 156 324 332 324c108 0 193 -54 234 -133l-118 -53c-20 41 -70 69 -123 69c-101 0 -189 -86 -189 -195c0 -91 67 -146 155 -146c62 0 120 37 141 97h-163l23 109h298c-26 -203 -157 -322 -311 -322zM498 689
c0 -40 -37 -75 -77 -75c-34 0 -60 26 -60 60c0 40 37 76 77 76c34 0 60 -26 60 -61z" />
    <glyph glyph-name="aeacute.alt1" horiz-adv-x="880" 
d="M841 200h-358c-1 -1 -1 -8 -1 -13c0 -42 47 -95 133 -95c39 0 89 10 122 35l39 -89c-41 -31 -97 -50 -160 -50c-99 0 -167 34 -210 96c-59 -56 -132 -96 -221 -96c-86 0 -170 44 -170 140c0 114 87 176 179 176c69 0 131 -24 166 -63l12 53c2 9 3 16 3 23
c0 45 -49 73 -113 73c-51 0 -93 -17 -134 -46l-30 92c56 41 122 59 191 59c84 0 148 -28 166 -97c39 55 102 97 190 97c111 0 206 -73 206 -215c0 -29 -8 -70 -10 -80zM498 288h239c1 4 1 7 1 11c0 51 -45 92 -110 92c-78 0 -116 -53 -130 -103zM348 132c-2 8 -3 22 -3 32v9
c-18 29 -66 46 -108 46c-51 0 -92 -31 -92 -81c0 -42 36 -64 87 -64c40 0 83 17 116 58zM722 700l-194 -144h-91l166 144h119z" />
    <glyph glyph-name="ycircumflex.alt1" horiz-adv-x="579" 
d="M511 556h-76l-54 89l-90 -89h-80l124 144h114zM206 -196c-100 0 -178 25 -234 84l75 84c31 -43 98 -64 157 -64c82 0 120 46 138 124l11 50c-41 -36 -88 -73 -161 -73c-85 0 -151 41 -151 123c0 9 1 20 5 40l70 311h127l-61 -272c-2 -11 -3 -23 -3 -28
c0 -49 40 -61 82 -61c45 0 85 28 113 56l68 305h127l-100 -451c-30 -133 -112 -228 -263 -228z" />
    <glyph glyph-name="ldot.alt1" horiz-adv-x="384" 
d="M177 -12c-91 0 -144 38 -144 103c0 11 1 23 3 35l120 541h127l-112 -507c-1 -7 -2 -13 -2 -21c0 -23 19 -38 47 -38c14 0 30 5 36 10l4 -102c-14 -11 -43 -21 -79 -21zM311 164c-42 0 -74 34 -74 75c0 48 41 87 89 87c41 0 73 -33 73 -74c0 -48 -41 -88 -88 -88z" />
    <glyph glyph-name="fl.alt1" horiz-adv-x="626" 
d="M165 0h-127l82 372h-80l25 111h79l4 20c24 111 85 174 181 174c39 0 77 -8 108 -27l-46 -91c-12 10 -29 14 -46 14c-37 0 -57 -23 -69 -70l-5 -20h99l-25 -111h-98zM504 -12c-91 0 -144 38 -144 103c0 11 1 23 3 35l120 541h127l-112 -507c-1 -7 -2 -13 -2 -21
c0 -23 19 -38 47 -38c14 0 30 5 36 10l4 -102c-14 -11 -43 -21 -79 -21z" />
    <glyph glyph-name="f_f_l.alt1" horiz-adv-x="953" 
d="M165 0h-127l82 372h-80l25 111h79l4 20c22 92 70 174 181 174c55 0 102 -15 134 -48l-64 -75c-14 13 -34 19 -54 19c-39 0 -57 -24 -69 -70l-5 -20h99l-25 -111h-98zM492 0h-127l82 372h-80l25 111h79l4 20c24 111 85 174 181 174c39 0 77 -8 108 -27l-46 -91
c-12 10 -29 14 -46 14c-37 0 -57 -23 -69 -70l-5 -20h99l-25 -111h-98zM832 -12c-91 0 -144 38 -144 103c0 11 1 23 3 35l120 541h127l-112 -507c-1 -7 -2 -13 -2 -21c0 -23 19 -38 47 -38c14 0 30 5 36 10l4 -102c-14 -11 -43 -21 -79 -21z" />
    <glyph glyph-name="Amacron" unicode="&#x100;" horiz-adv-x="684" 
d="M634 0h-154l-17 113h-286l-66 -113h-169l404 667h178zM452 238l-41 287l-167 -287h208zM633 747h-362l16 73h362z" />
    <glyph glyph-name="amacron" unicode="&#x101;" horiz-adv-x="586" 
d="M281 495c65 0 122 -28 154 -76l13 64h128l-107 -483h-128l14 60c-41 -48 -87 -72 -145 -72c-109 0 -184 72 -184 200c0 146 91 307 255 307zM301 382c-83 0 -142 -79 -142 -168c0 -69 46 -113 107 -113c45 0 85 25 111 58l37 167c-21 33 -62 56 -113 56zM524 574h-362
l16 73h362z" />
    <glyph glyph-name="Abreve" unicode="&#x102;" horiz-adv-x="684" 
d="M634 0h-154l-17 113h-286l-66 -113h-169l404 667h178zM452 238l-41 287l-167 -287h208zM640 803c-52 -54 -122 -88 -194 -88c-71 0 -128 34 -157 88l64 47c19 -37 55 -62 106 -62c50 0 96 23 133 62z" />
    <glyph glyph-name="abreve" unicode="&#x103;" horiz-adv-x="586" 
d="M281 495c65 0 122 -28 154 -76l13 64h128l-107 -483h-128l14 60c-41 -48 -87 -72 -145 -72c-109 0 -184 72 -184 200c0 146 91 307 255 307zM301 382c-83 0 -142 -79 -142 -168c0 -69 46 -113 107 -113c45 0 85 25 111 58l37 167c-21 33 -62 56 -113 56zM532 644
c-52 -54 -122 -88 -194 -88c-71 0 -128 34 -157 88l64 47c19 -37 55 -62 106 -62c50 0 96 23 133 62z" />
    <glyph glyph-name="Aogonek" unicode="&#x104;" horiz-adv-x="684" 
d="M622 -99l43 -36c-23 -30 -52 -51 -94 -51c-50 0 -94 25 -94 76c0 41 21 80 60 110h-57l-17 113h-286l-66 -113h-169l404 667h178l110 -667c-60 -26 -94 -60 -94 -99c0 -22 14 -33 35 -33c20 0 35 13 47 33zM452 238l-41 287l-167 -287h208z" />
    <glyph glyph-name="aogonek" unicode="&#x105;" horiz-adv-x="586" 
d="M457 -99l43 -36c-23 -30 -52 -51 -94 -51c-50 0 -94 25 -94 76c0 41 21 80 60 110h-31l14 60c-41 -48 -87 -72 -145 -72c-109 0 -184 72 -184 200c0 146 91 307 255 307c65 0 122 -28 154 -76l13 64h128l-107 -483c-60 -26 -94 -60 -94 -99c0 -22 14 -33 35 -33
c20 0 35 13 47 33zM301 382c-83 0 -142 -79 -142 -168c0 -69 46 -113 107 -113c45 0 85 25 111 58l37 167c-21 33 -62 56 -113 56z" />
    <glyph glyph-name="Cacute" unicode="&#x106;" horiz-adv-x="687" 
d="M372 -12c-184 0 -328 117 -328 299c0 236 181 391 388 391c163 0 257 -88 296 -189l-136 -46c-26 71 -90 109 -167 109c-126 0 -232 -109 -232 -256c0 -104 72 -182 187 -182c57 0 119 30 157 77l110 -74c-77 -98 -188 -129 -275 -129zM697 872l-194 -144h-91l166 144
h119z" />
    <glyph glyph-name="cacute" unicode="&#x107;" horiz-adv-x="499" 
d="M265 -12c-144 0 -237 88 -237 220c0 159 123 287 281 287c99 0 163 -40 196 -95l-95 -73c-20 34 -57 55 -101 55c-91 0 -152 -77 -152 -167c0 -73 54 -114 121 -114c41 0 77 20 101 48l69 -84c-36 -39 -98 -77 -183 -77zM565 700l-194 -144h-91l166 144h119z" />
    <glyph glyph-name="Ccircumflex" unicode="&#x108;" horiz-adv-x="687" 
d="M372 -12c-184 0 -328 117 -328 299c0 236 181 391 388 391c163 0 257 -88 296 -189l-136 -46c-26 71 -90 109 -167 109c-126 0 -232 -109 -232 -256c0 -104 72 -182 187 -182c57 0 119 30 157 77l110 -74c-77 -98 -188 -129 -275 -129zM646 728h-76l-54 89l-90 -89h-80
l124 144h114z" />
    <glyph glyph-name="ccircumflex" unicode="&#x109;" horiz-adv-x="499" 
d="M265 -12c-144 0 -237 88 -237 220c0 159 123 287 281 287c99 0 163 -40 196 -95l-95 -73c-20 34 -57 55 -101 55c-91 0 -152 -77 -152 -167c0 -73 54 -114 121 -114c41 0 77 20 101 48l69 -84c-36 -39 -98 -77 -183 -77zM514 556h-76l-54 89l-90 -89h-80l124 144h114z
" />
    <glyph glyph-name="Cdotaccent" unicode="&#x10a;" horiz-adv-x="687" 
d="M372 -12c-184 0 -328 117 -328 299c0 236 181 391 388 391c163 0 257 -88 296 -189l-136 -46c-26 71 -90 109 -167 109c-126 0 -232 -109 -232 -256c0 -104 72 -182 187 -182c57 0 119 30 157 77l110 -74c-77 -98 -188 -129 -275 -129zM580 791c0 -40 -37 -75 -77 -75
c-34 0 -60 26 -60 60c0 40 37 76 77 76c34 0 60 -26 60 -61z" />
    <glyph glyph-name="cdotaccent" unicode="&#x10b;" horiz-adv-x="499" 
d="M265 -12c-144 0 -237 88 -237 220c0 159 123 287 281 287c99 0 163 -40 196 -95l-95 -73c-20 34 -57 55 -101 55c-91 0 -152 -77 -152 -167c0 -73 54 -114 121 -114c41 0 77 20 101 48l69 -84c-36 -39 -98 -77 -183 -77zM440 626c0 -40 -37 -75 -77 -75
c-34 0 -60 26 -60 60c0 40 37 76 77 76c34 0 60 -26 60 -61z" />
    <glyph glyph-name="Ccaron" unicode="&#x10c;" horiz-adv-x="687" 
d="M372 -12c-184 0 -328 117 -328 299c0 236 181 391 388 391c163 0 257 -88 296 -189l-136 -46c-26 71 -90 109 -167 109c-126 0 -232 -109 -232 -256c0 -104 72 -182 187 -182c57 0 119 30 157 77l110 -74c-77 -98 -188 -129 -275 -129zM555 728h-114l-63 144h76l54 -89
l90 89h80z" />
    <glyph glyph-name="ccaron" unicode="&#x10d;" horiz-adv-x="499" 
d="M265 -12c-144 0 -237 88 -237 220c0 159 123 287 281 287c99 0 163 -40 196 -95l-95 -73c-20 34 -57 55 -101 55c-91 0 -152 -77 -152 -167c0 -73 54 -114 121 -114c41 0 77 20 101 48l69 -84c-36 -39 -98 -77 -183 -77zM423 556h-114l-63 144h76l54 -89l90 89h80z" />
    <glyph glyph-name="Dcaron" unicode="&#x10e;" horiz-adv-x="718" 
d="M274 0h-262l147 667h258c148 0 289 -114 289 -286c0 -176 -118 -381 -432 -381zM274 542l-92 -417h118c161 0 259 113 259 246c0 97 -70 171 -168 171h-117zM528 728h-114l-63 144h76l54 -89l90 89h80z" />
    <glyph glyph-name="dcaron" unicode="&#x10f;" horiz-adv-x="690" 
d="M281 495c65 0 122 -28 154 -76l54 248h128l-148 -667h-128l14 60c-41 -48 -87 -72 -145 -72c-109 0 -184 72 -184 200c0 146 91 307 255 307zM301 382c-83 0 -142 -79 -142 -168c0 -69 46 -113 107 -113c45 0 85 25 111 58l37 167c-21 33 -62 56 -113 56zM774 615
c0 -61 -52 -128 -118 -161l-35 37c30 14 67 42 80 70h-9c-26 0 -48 18 -48 51c0 37 34 68 69 68c32 0 61 -22 61 -65z" />
    <glyph glyph-name="Dcroat" unicode="&#x110;" horiz-adv-x="742" 
d="M299 0h-262l61 277h-82l25 114h82l61 276h258c148 0 289 -114 289 -286c0 -176 -118 -381 -432 -381zM327 125c160 1 257 113 257 246c0 97 -70 171 -168 171h-117l-34 -151h149l-26 -114h-148l-33 -152h120z" />
    <glyph glyph-name="dcroat" unicode="&#x111;" horiz-adv-x="590" 
d="M281 495c65 0 122 -28 154 -76l23 109h-151l15 73h152l15 66h128l-15 -66h50l-14 -73h-52l-117 -528h-128l14 60c-41 -48 -87 -72 -145 -72c-109 0 -184 72 -184 200c0 146 91 307 255 307zM301 382c-83 0 -142 -79 -142 -168c0 -69 46 -113 107 -113c45 0 85 25 111 58
l37 167c-21 33 -62 56 -113 56z" />
    <glyph glyph-name="Emacron" unicode="&#x112;" horiz-adv-x="583" 
d="M484 0h-472l147 667h472l-28 -125h-329l-31 -140h322l-27 -125h-323l-33 -152h329zM590 747h-362l16 73h362z" />
    <glyph glyph-name="emacron" unicode="&#x113;" horiz-adv-x="553" 
d="M278 -12c-152 0 -250 82 -250 217c0 157 118 290 279 290c124 0 217 -80 217 -215c0 -29 -6 -65 -10 -80h-359v-12c0 -41 43 -96 133 -96c43 0 92 12 122 35l39 -89c-47 -32 -111 -50 -171 -50zM409 288h1c1 2 1 8 1 10c0 49 -36 93 -112 93c-69 0 -120 -50 -130 -103
h240zM532 574h-362l16 73h362z" />
    <glyph glyph-name="Ebreve" unicode="&#x114;" horiz-adv-x="583" 
d="M484 0h-472l147 667h472l-28 -125h-329l-31 -140h322l-27 -125h-323l-33 -152h329zM596 803c-52 -54 -122 -88 -194 -88c-71 0 -128 34 -157 88l64 47c19 -37 55 -62 106 -62c50 0 96 23 133 62z" />
    <glyph glyph-name="ebreve" unicode="&#x115;" horiz-adv-x="553" 
d="M278 -12c-152 0 -250 82 -250 217c0 157 118 290 279 290c124 0 217 -80 217 -215c0 -29 -6 -65 -10 -80h-359v-12c0 -41 43 -96 133 -96c43 0 92 12 122 35l39 -89c-47 -32 -111 -50 -171 -50zM409 288h1c1 2 1 8 1 10c0 49 -36 93 -112 93c-69 0 -120 -50 -130 -103
h240zM548 644c-52 -54 -122 -88 -194 -88c-71 0 -128 34 -157 88l64 47c19 -37 55 -62 106 -62c50 0 96 23 133 62z" />
    <glyph glyph-name="Edotaccent" unicode="&#x116;" horiz-adv-x="583" 
d="M484 0h-472l147 667h472l-28 -125h-329l-31 -140h322l-27 -125h-323l-33 -152h329zM492 791c0 -40 -37 -75 -77 -75c-34 0 -60 26 -60 60c0 40 37 76 77 76c34 0 60 -26 60 -61z" />
    <glyph glyph-name="edotaccent" unicode="&#x117;" horiz-adv-x="553" 
d="M278 -12c-152 0 -250 82 -250 217c0 157 118 290 279 290c124 0 217 -80 217 -215c0 -29 -6 -65 -10 -80h-359v-12c0 -41 43 -96 133 -96c43 0 92 12 122 35l39 -89c-47 -32 -111 -50 -171 -50zM409 288h1c1 2 1 8 1 10c0 49 -36 93 -112 93c-69 0 -120 -50 -130 -103
h240zM436 626c0 -40 -37 -75 -77 -75c-34 0 -60 26 -60 60c0 40 37 76 77 76c34 0 60 -26 60 -61z" />
    <glyph glyph-name="Eogonek" unicode="&#x118;" horiz-adv-x="583" 
d="M472 -99l43 -36c-23 -30 -52 -51 -94 -51c-50 0 -94 25 -94 76c0 41 21 80 60 110h-375l147 667h472l-28 -125h-329l-31 -140h322l-27 -125h-323l-33 -152h329l-27 -125c-60 -26 -94 -60 -94 -99c0 -22 14 -33 35 -33c20 0 35 13 47 33z" />
    <glyph glyph-name="eogonek" unicode="&#x119;" horiz-adv-x="553" 
d="M352 -99l43 -36c-23 -30 -52 -51 -94 -51c-50 0 -94 25 -94 76c0 36 16 70 47 99c-139 8 -226 88 -226 216c0 157 118 290 279 290c124 0 217 -80 217 -215c0 -29 -6 -65 -10 -80h-359v-12c0 -41 43 -96 133 -96c43 0 92 12 122 35l39 -89c-25 -17 -54 -30 -85 -38
c-60 -26 -94 -60 -94 -99c0 -22 14 -33 35 -33c20 0 35 13 47 33zM410 288c1 2 1 8 1 10c0 49 -36 93 -112 93c-69 0 -120 -50 -130 -103h241z" />
    <glyph glyph-name="Ecaron" unicode="&#x11a;" horiz-adv-x="583" 
d="M484 0h-472l147 667h472l-28 -125h-329l-31 -140h322l-27 -125h-323l-33 -152h329zM469 728h-114l-63 144h76l54 -89l90 89h80z" />
    <glyph glyph-name="ecaron" unicode="&#x11b;" horiz-adv-x="553" 
d="M278 -12c-152 0 -250 82 -250 217c0 157 118 290 279 290c124 0 217 -80 217 -215c0 -29 -6 -65 -10 -80h-359v-12c0 -41 43 -96 133 -96c43 0 92 12 122 35l39 -89c-47 -32 -111 -50 -171 -50zM409 288h1c1 2 1 8 1 10c0 49 -36 93 -112 93c-69 0 -120 -50 -130 -103
h240zM409 556h-114l-63 144h76l54 -89l90 89h80z" />
    <glyph glyph-name="Gcircumflex" unicode="&#x11c;" horiz-adv-x="720" 
d="M372 -12c-182 0 -328 115 -328 299c0 225 170 391 401 391c143 0 235 -80 275 -165l-130 -56c-23 55 -89 95 -165 95c-124 0 -232 -110 -232 -256c0 -101 70 -182 187 -182c56 0 100 22 133 51l18 80h-177l28 125h319l-58 -259c-65 -77 -161 -123 -271 -123zM649 728h-76
l-54 89l-90 -89h-80l124 144h114z" />
    <glyph glyph-name="gcircumflex" unicode="&#x11d;" horiz-adv-x="585" 
d="M212 -196c-95 0 -175 22 -234 84l75 84c31 -42 94 -64 157 -64c59 0 117 26 137 124l10 46c-36 -46 -89 -74 -148 -74c-97 0 -182 57 -182 196c0 147 93 295 250 295c59 0 121 -29 156 -76l15 64h127l-100 -451c-41 -182 -159 -228 -263 -228zM269 117c42 0 83 24 109 56
l34 150c-23 37 -67 59 -118 59c-79 0 -135 -70 -135 -157c0 -65 44 -108 110 -108zM517 548h-76l-54 89l-90 -89h-80l124 144h114z" />
    <glyph glyph-name="Gbreve" unicode="&#x11e;" horiz-adv-x="720" 
d="M372 -12c-182 0 -328 115 -328 299c0 225 170 391 401 391c143 0 235 -80 275 -165l-130 -56c-23 55 -89 95 -165 95c-124 0 -232 -110 -232 -256c0 -101 70 -182 187 -182c56 0 100 22 133 51l18 80h-177l28 125h319l-58 -259c-65 -77 -161 -123 -271 -123zM689 803
c-52 -54 -122 -88 -194 -88c-71 0 -128 34 -157 88l64 47c19 -37 55 -62 106 -62c50 0 96 23 133 62z" />
    <glyph glyph-name="gbreve" unicode="&#x11f;" horiz-adv-x="585" 
d="M212 -196c-95 0 -175 22 -234 84l75 84c31 -42 94 -64 157 -64c59 0 117 26 137 124l10 46c-36 -46 -89 -74 -148 -74c-97 0 -182 57 -182 196c0 147 93 295 250 295c59 0 121 -29 156 -76l15 64h127l-100 -451c-41 -182 -159 -228 -263 -228zM269 117c42 0 83 24 109 56
l34 150c-23 37 -67 59 -118 59c-79 0 -135 -70 -135 -157c0 -65 44 -108 110 -108zM553 644c-52 -54 -122 -88 -194 -88c-71 0 -128 34 -157 88l64 47c19 -37 55 -62 106 -62c50 0 96 23 133 62z" />
    <glyph glyph-name="Gdotaccent" unicode="&#x120;" horiz-adv-x="720" 
d="M372 -12c-182 0 -328 115 -328 299c0 225 170 391 401 391c143 0 235 -80 275 -165l-130 -56c-23 55 -89 95 -165 95c-124 0 -232 -110 -232 -256c0 -101 70 -182 187 -182c56 0 100 22 133 51l18 80h-177l28 125h319l-58 -259c-65 -77 -161 -123 -271 -123zM579 791
c0 -40 -37 -75 -77 -75c-34 0 -60 26 -60 60c0 40 37 76 77 76c34 0 60 -26 60 -61z" />
    <glyph glyph-name="gdotaccent" unicode="&#x121;" horiz-adv-x="585" 
d="M212 -196c-95 0 -175 22 -234 84l75 84c31 -42 94 -64 157 -64c59 0 117 26 137 124l10 46c-36 -46 -89 -74 -148 -74c-97 0 -182 57 -182 196c0 147 93 295 250 295c59 0 121 -29 156 -76l15 64h127l-100 -451c-41 -182 -159 -228 -263 -228zM269 117c42 0 83 24 109 56
l34 150c-23 37 -67 59 -118 59c-79 0 -135 -70 -135 -157c0 -65 44 -108 110 -108zM449 626c0 -40 -37 -75 -77 -75c-34 0 -60 26 -60 60c0 40 37 76 77 76c34 0 60 -26 60 -61z" />
    <glyph glyph-name="Gcommaaccent" unicode="&#x122;" horiz-adv-x="720" 
d="M372 -12c-182 0 -328 115 -328 299c0 225 170 391 401 391c143 0 235 -80 275 -165l-130 -56c-23 55 -89 95 -165 95c-124 0 -232 -110 -232 -256c0 -101 70 -182 187 -182c56 0 100 22 133 51l18 80h-177l28 125h319l-58 -259c-65 -77 -161 -123 -271 -123zM377 -121
c0 -61 -52 -128 -118 -161l-35 37c30 14 67 42 80 70h-9c-26 0 -48 18 -48 51c0 37 34 68 69 68c32 0 61 -22 61 -65z" />
    <glyph glyph-name="gcommaaccent" unicode="&#x123;" horiz-adv-x="585" 
d="M303 620c0 63 53 132 119 164l37 -38c-31 -14 -69 -41 -82 -71h9c26 0 49 -17 49 -52c0 -37 -34 -68 -70 -68c-33 0 -62 23 -62 65zM212 -196c-95 0 -175 22 -234 84l75 84c31 -42 94 -64 157 -64c59 0 117 26 137 124l10 46c-36 -46 -89 -74 -148 -74
c-97 0 -182 57 -182 196c0 147 93 295 250 295c59 0 121 -29 156 -76l15 64h127l-100 -451c-41 -182 -159 -228 -263 -228zM269 117c42 0 83 24 109 56l34 150c-23 37 -67 59 -118 59c-79 0 -135 -70 -135 -157c0 -65 44 -108 110 -108z" />
    <glyph glyph-name="Hcircumflex" unicode="&#x124;" horiz-adv-x="731" 
d="M612 0h-143l62 281h-315l-62 -281h-142l147 667h142l-57 -262h314l58 262h143zM622 728h-76l-54 89l-90 -89h-80l124 144h114z" />
    <glyph glyph-name="hcircumflex" unicode="&#x125;" horiz-adv-x="580" 
d="M463 0h-127l64 293c2 8 4 21 4 28c0 44 -36 61 -83 61c-43 0 -85 -29 -113 -57l-71 -325h-128l147 667h128l-55 -246c38 36 90 74 161 74c93 0 151 -48 151 -123c0 -10 -3 -30 -5 -40zM386 728h-76l-54 89l-90 -89h-80l124 144h114z" />
    <glyph glyph-name="Hbar" unicode="&#x126;" horiz-adv-x="748" 
d="M621 0h-143l62 281h-315l-62 -281h-142l110 501h-65l16 73h65l21 93h142l-20 -93h314l21 93h143l-21 -93h63l-16 -73h-63zM253 405h314l21 96h-314z" />
    <glyph glyph-name="hbar" unicode="&#x127;" horiz-adv-x="584" 
d="M467 0h-127l64 293c2 8 4 21 4 28c0 44 -36 61 -83 61c-43 0 -85 -29 -113 -57l-71 -325h-128l116 528h-58l17 73h57l15 66h128l-15 -66h145l-16 -73h-145l-24 -107c38 36 90 74 161 74c93 0 151 -48 151 -123c0 -10 -3 -30 -5 -40z" />
    <glyph glyph-name="Itilde" unicode="&#x128;" horiz-adv-x="274" 
d="M154 0h-142l147 667h142zM315 726c-70 0 -74 68 -120 68c-20 0 -36 -19 -45 -62h-68c17 85 51 134 121 134s75 -67 121 -67c20 0 35 19 45 61h68c-18 -85 -52 -134 -122 -134z" />
    <glyph glyph-name="itilde" unicode="&#x129;" horiz-adv-x="253" 
d="M136 0h-127l107 483h127zM267 537c-70 0 -74 68 -120 68c-20 0 -36 -19 -45 -62h-68c17 85 51 134 121 134s75 -67 121 -67c20 0 35 19 45 61h68c-18 -85 -52 -134 -122 -134z" />
    <glyph glyph-name="Imacron" unicode="&#x12a;" horiz-adv-x="274" 
d="M154 0h-142l147 667h142zM429 747h-362l16 73h362z" />
    <glyph glyph-name="imacron" unicode="&#x12b;" horiz-adv-x="253" 
d="M136 0h-127l107 483h127zM381 574h-362l16 73h362z" />
    <glyph glyph-name="Ibreve" unicode="&#x12c;" horiz-adv-x="274" 
d="M154 0h-142l147 667h142zM439 803c-52 -54 -122 -88 -194 -88c-71 0 -128 34 -157 88l64 47c19 -37 55 -62 106 -62c50 0 96 23 133 62z" />
    <glyph glyph-name="ibreve" unicode="&#x12d;" horiz-adv-x="253" 
d="M136 0h-127l107 483h127zM394 644c-52 -54 -122 -88 -194 -88c-71 0 -128 34 -157 88l64 47c19 -37 55 -62 106 -62c50 0 96 23 133 62z" />
    <glyph glyph-name="Iogonek" unicode="&#x12e;" horiz-adv-x="274" 
d="M142 -99l43 -36c-23 -30 -52 -51 -94 -51c-50 0 -94 25 -94 76c0 41 21 80 60 110h-45l147 667h142l-147 -667c-60 -26 -94 -60 -94 -99c0 -22 14 -33 35 -33c20 0 35 13 47 33z" />
    <glyph glyph-name="iogonek" unicode="&#x12f;" horiz-adv-x="253" 
d="M124 -99l43 -36c-23 -30 -52 -51 -94 -51c-50 0 -94 25 -94 76c0 41 21 80 60 110h-30l107 483h127l-107 -483c-60 -26 -94 -60 -94 -99c0 -22 14 -33 35 -33c20 0 35 13 47 33zM198 535c-39 0 -68 29 -68 65c0 55 47 86 85 86c40 0 69 -29 69 -65c0 -55 -47 -86 -86 -86
z" />
    <glyph glyph-name="Idotaccent" unicode="&#x130;" horiz-adv-x="274" 
d="M154 0h-142l147 667h142zM327 791c0 -40 -37 -75 -77 -75c-34 0 -60 26 -60 60c0 40 37 76 77 76c34 0 60 -26 60 -61z" />
    <glyph glyph-name="IJ" unicode="&#x132;" horiz-adv-x="761" 
d="M154 0h-142l147 667h142zM439 -12c-74 0 -151 24 -194 75l77 107c21 -33 61 -56 107 -56c65 0 104 43 118 107l98 446h143l-99 -448c-35 -157 -113 -231 -250 -231z" />
    <glyph glyph-name="ij" unicode="&#x133;" horiz-adv-x="505" 
d="M198 535c-39 0 -68 29 -68 65c0 55 47 86 85 86c40 0 69 -29 69 -65c0 -55 -47 -86 -86 -86zM136 0h-127l107 483h127zM200 -196c-62 0 -105 13 -134 41l53 90c15 -18 37 -27 62 -27c38 0 65 25 77 79l111 496h127l-110 -496c-24 -110 -76 -183 -186 -183zM451 535
c-39 0 -68 29 -68 65c0 55 47 86 85 86c40 0 69 -29 69 -65c0 -55 -47 -86 -86 -86z" />
    <glyph glyph-name="Jcircumflex" unicode="&#x134;" horiz-adv-x="486" 
d="M165 -12c-74 0 -151 24 -194 75l77 107c21 -33 61 -56 107 -56c65 0 104 43 118 107l98 446h143l-99 -448c-35 -157 -113 -231 -250 -231zM607 728h-76l-54 89l-90 -89h-80l124 144h114z" />
    <glyph glyph-name="jcircumflex" unicode="&#x135;" horiz-adv-x="253" 
d="M-53 -196c-62 0 -105 13 -134 41l55 99c15 -18 37 -27 62 -27c38 0 65 25 75 70l111 496h127l-110 -496c-24 -110 -76 -183 -186 -183zM348 556h-76l-54 89l-90 -89h-80l124 144h114z" />
    <glyph glyph-name="Kcommaaccent" unicode="&#x136;" horiz-adv-x="648" 
d="M583 0h-167l-146 273l-70 -68l-46 -205h-142l147 667h142l-63 -286l291 286h183l-334 -313zM311 -121c0 -61 -52 -128 -118 -161l-35 37c30 14 67 42 80 70h-9c-26 0 -48 18 -48 51c0 37 34 68 69 68c32 0 61 -22 61 -65z" />
    <glyph glyph-name="kcommaaccent" unicode="&#x137;" horiz-adv-x="536" 
d="M481 0h-154l-89 189l-75 -65l-27 -124h-127l147 667h127l-87 -391l225 207h161l-240 -219zM256 -121c0 -61 -52 -128 -118 -161l-35 37c30 14 67 42 80 70h-9c-26 0 -48 18 -48 51c0 37 34 68 69 68c32 0 61 -22 61 -65z" />
    <glyph glyph-name="kgreenlandic" unicode="&#x138;" horiz-adv-x="536" 
d="M481 0h-154l-89 189l-75 -65l-27 -124h-127l107 483h127l-47 -207l225 207h161l-240 -219z" />
    <glyph glyph-name="Lacute" unicode="&#x139;" horiz-adv-x="515" 
d="M431 0h-425l147 667h143l-120 -542h282zM542 872l-194 -144h-91l166 144h119z" />
    <glyph glyph-name="lacute" unicode="&#x13a;" horiz-adv-x="253" 
d="M136 0h-127l147 667h127zM435 872l-194 -144h-91l166 144h119z" />
    <glyph glyph-name="Lcommaaccent" unicode="&#x13b;" horiz-adv-x="515" 
d="M431 0h-425l147 667h143l-120 -542h282zM242 -121c0 -61 -52 -128 -118 -161l-35 37c30 14 67 42 80 70h-9c-26 0 -48 18 -48 51c0 37 34 68 69 68c32 0 61 -22 61 -65z" />
    <glyph glyph-name="lcommaaccent" unicode="&#x13c;" horiz-adv-x="253" 
d="M136 0h-127l147 667h127zM114 -121c0 -61 -52 -128 -118 -161l-35 37c30 14 67 42 80 70h-9c-26 0 -48 18 -48 51c0 37 34 68 69 68c32 0 61 -22 61 -65z" />
    <glyph glyph-name="Lcaron" unicode="&#x13d;" horiz-adv-x="515" 
d="M431 0h-425l147 667h143l-120 -542h282zM493 616c0 -61 -52 -128 -118 -161l-35 37c30 14 67 42 80 70h-9c-26 0 -48 18 -48 51c0 37 34 68 69 68c32 0 61 -22 61 -65z" />
    <glyph glyph-name="lcaron" unicode="&#x13e;" horiz-adv-x="355" 
d="M136 0h-127l147 667h127zM451 616c0 -61 -52 -128 -118 -161l-35 37c30 14 67 42 80 70h-9c-26 0 -48 18 -48 51c0 37 34 68 69 68c32 0 61 -22 61 -65z" />
    <glyph glyph-name="Ldot" unicode="&#x13f;" horiz-adv-x="556" 
d="M431 0h-425l147 667h143l-120 -542h282zM427 262c-42 0 -74 34 -74 75c0 48 41 87 89 87c41 0 73 -33 73 -74c0 -48 -41 -88 -88 -88z" />
    <glyph glyph-name="ldot" unicode="&#x140;" horiz-adv-x="384" 
d="M136 0h-127l147 667h127zM311 164c-42 0 -74 34 -74 75c0 48 41 87 89 87c41 0 73 -33 73 -74c0 -48 -41 -88 -88 -88z" />
    <glyph glyph-name="Nacute" unicode="&#x143;" horiz-adv-x="729" 
d="M609 0h-137l-220 442l-98 -442h-142l147 667h146l214 -425l95 425h142zM672 872l-194 -144h-91l166 144h119z" />
    <glyph glyph-name="nacute" unicode="&#x144;" horiz-adv-x="579" 
d="M470 0h-128l65 293c2 9 4 19 4 28c0 44 -36 61 -83 61c-43 0 -85 -29 -113 -56l-72 -326h-127l107 483h127l-14 -62c38 36 90 74 161 74c93 0 151 -48 151 -123c0 -9 -3 -30 -5 -40zM560 700l-194 -144h-91l166 144h119z" />
    <glyph glyph-name="Ncommaaccent" unicode="&#x145;" horiz-adv-x="729" 
d="M609 0h-137l-220 442l-98 -442h-142l147 667h146l214 -425l95 425h142zM352 -121c0 -61 -52 -128 -118 -161l-35 37c30 14 67 42 80 70h-9c-26 0 -48 18 -48 51c0 37 34 68 69 68c32 0 61 -22 61 -65z" />
    <glyph glyph-name="ncommaaccent" unicode="&#x146;" horiz-adv-x="579" 
d="M470 0h-128l65 293c2 9 4 19 4 28c0 44 -36 61 -83 61c-43 0 -85 -29 -113 -56l-72 -326h-127l107 483h127l-14 -62c38 36 90 74 161 74c93 0 151 -48 151 -123c0 -9 -3 -30 -5 -40zM277 -121c0 -61 -52 -128 -118 -161l-35 37c30 14 67 42 80 70h-9c-26 0 -48 18 -48 51
c0 37 34 68 69 68c32 0 61 -22 61 -65z" />
    <glyph glyph-name="Ncaron" unicode="&#x147;" horiz-adv-x="729" 
d="M609 0h-137l-220 442l-98 -442h-142l147 667h146l214 -425l95 425h142zM530 728h-114l-63 144h76l54 -89l90 89h80z" />
    <glyph glyph-name="ncaron" unicode="&#x148;" horiz-adv-x="579" 
d="M470 0h-128l65 293c2 9 4 19 4 28c0 44 -36 61 -83 61c-43 0 -85 -29 -113 -56l-72 -326h-127l107 483h127l-14 -62c38 36 90 74 161 74c93 0 151 -48 151 -123c0 -9 -3 -30 -5 -40zM418 556h-114l-63 144h76l54 -89l90 89h80z" />
    <glyph glyph-name="napostrophe" unicode="&#x149;" horiz-adv-x="579" 
d="M470 0h-128l65 293c2 9 4 19 4 28c0 44 -36 61 -83 61c-43 0 -85 -29 -113 -56l-72 -326h-127l107 483h127l-14 -62c38 36 90 74 161 74c93 0 151 -48 151 -123c0 -9 -3 -30 -5 -40zM273 700c0 -61 -52 -128 -118 -161l-35 37c30 14 67 42 80 70h-9c-26 0 -48 18 -48 51
c0 37 34 68 69 68c32 0 61 -22 61 -65z" />
    <glyph glyph-name="Eng" unicode="&#x14a;" horiz-adv-x="729" 
d="M366 -196c-78 0 -151 26 -193 75l74 94c20 -32 60 -55 107 -55c57 0 96 34 113 91l-215 433l-98 -442h-142l147 667h146l214 -425l95 425h142l-140 -633c-36 -161 -118 -230 -250 -230z" />
    <glyph glyph-name="eng" unicode="&#x14b;" horiz-adv-x="579" 
d="M273 -196c-60 0 -104 12 -134 41l56 99c15 -17 34 -27 62 -27c39 0 65 25 75 70l68 306c2 10 4 19 4 27c0 45 -35 62 -83 62c-43 0 -85 -29 -113 -56l-72 -326h-127l107 483h127l-14 -62c38 36 90 74 161 74c87 0 151 -43 151 -123c0 -13 -2 -26 -5 -40l-77 -345
c-24 -108 -75 -183 -186 -183z" />
    <glyph glyph-name="Omacron" unicode="&#x14c;" horiz-adv-x="765" 
d="M372 -12c-185 0 -328 116 -328 299c0 218 168 391 388 391c184 0 328 -115 328 -298c0 -218 -168 -392 -388 -392zM380 114c129 0 231 113 231 256c0 112 -81 182 -188 182c-129 0 -230 -113 -230 -256c0 -112 80 -182 187 -182zM674 747h-362l16 73h362z" />
    <glyph glyph-name="omacron" unicode="&#x14d;" horiz-adv-x="575" 
d="M266 -12c-154 0 -239 93 -239 220c0 150 116 287 279 287c154 0 240 -93 240 -220c0 -150 -116 -287 -280 -287zM271 101c85 0 143 81 143 168c0 70 -42 113 -112 113c-85 0 -144 -81 -144 -168c0 -70 43 -113 113 -113zM541 574h-362l16 73h362z" />
    <glyph glyph-name="Obreve" unicode="&#x14e;" horiz-adv-x="765" 
d="M372 -12c-185 0 -328 116 -328 299c0 218 168 391 388 391c184 0 328 -115 328 -298c0 -218 -168 -392 -388 -392zM380 114c129 0 231 113 231 256c0 112 -81 182 -188 182c-129 0 -230 -113 -230 -256c0 -112 80 -182 187 -182zM680 803c-52 -54 -122 -88 -194 -88
c-71 0 -128 34 -157 88l64 47c19 -37 55 -62 106 -62c50 0 96 23 133 62z" />
    <glyph glyph-name="obreve" unicode="&#x14f;" horiz-adv-x="575" 
d="M266 -12c-154 0 -239 93 -239 220c0 150 116 287 279 287c154 0 240 -93 240 -220c0 -150 -116 -287 -280 -287zM271 101c85 0 143 81 143 168c0 70 -42 113 -112 113c-85 0 -144 -81 -144 -168c0 -70 43 -113 113 -113zM550 644c-52 -54 -122 -88 -194 -88
c-71 0 -128 34 -157 88l64 47c19 -37 55 -62 106 -62c50 0 96 23 133 62z" />
    <glyph glyph-name="Ohungarumlaut" unicode="&#x150;" horiz-adv-x="765" 
d="M372 -12c-185 0 -328 116 -328 299c0 218 168 391 388 391c184 0 328 -115 328 -298c0 -218 -168 -392 -388 -392zM380 114c129 0 231 113 231 256c0 112 -81 182 -188 182c-129 0 -230 -113 -230 -256c0 -112 80 -182 187 -182zM588 872l-147 -144h-76l119 144h104z
M737 872l-147 -144h-76l119 144h104z" />
    <glyph glyph-name="ohungarumlaut" unicode="&#x151;" horiz-adv-x="575" 
d="M266 -12c-154 0 -239 93 -239 220c0 150 116 287 279 287c154 0 240 -93 240 -220c0 -150 -116 -287 -280 -287zM271 101c85 0 143 81 143 168c0 70 -42 113 -112 113c-85 0 -144 -81 -144 -168c0 -70 43 -113 113 -113zM455 700l-147 -144h-76l119 144h104zM604 700
l-147 -144h-76l119 144h104z" />
    <glyph glyph-name="Racute" unicode="&#x154;" horiz-adv-x="643" 
d="M553 0h-158l-79 237h-110l-52 -237h-142l147 667h285c108 0 206 -72 206 -188c0 -120 -82 -212 -190 -232zM382 362h1c74 0 119 43 119 103c0 45 -41 77 -85 77h-143l-40 -180h148zM632 872l-194 -144h-91l166 144h119z" />
    <glyph glyph-name="racute" unicode="&#x155;" horiz-adv-x="360" 
d="M136 0h-127l107 483h127l-14 -63c42 46 94 75 171 75l-28 -126c-8 2 -26 6 -46 6c-47 0 -92 -26 -120 -58zM473 700l-194 -144h-91l166 144h119z" />
    <glyph glyph-name="Rcommaaccent" unicode="&#x156;" horiz-adv-x="643" 
d="M553 0h-158l-79 237h-110l-52 -237h-142l147 667h285c108 0 206 -72 206 -188c0 -120 -82 -212 -190 -232zM382 362h1c74 0 119 43 119 103c0 45 -41 77 -85 77h-143l-40 -180h148zM312 -121c0 -61 -52 -128 -118 -161l-35 37c30 14 67 42 80 70h-9c-26 0 -48 18 -48 51
c0 37 34 68 69 68c32 0 61 -22 61 -65z" />
    <glyph glyph-name="rcommaaccent" unicode="&#x157;" horiz-adv-x="360" 
d="M136 0h-127l107 483h127l-14 -63c42 46 94 75 171 75l-28 -126c-8 2 -26 6 -46 6c-47 0 -92 -26 -120 -58zM167 -121c0 -61 -52 -128 -118 -161l-35 37c30 14 67 42 80 70h-9c-26 0 -48 18 -48 51c0 37 34 68 69 68c32 0 61 -22 61 -65z" />
    <glyph glyph-name="Rcaron" unicode="&#x158;" horiz-adv-x="643" 
d="M553 0h-158l-79 237h-110l-52 -237h-142l147 667h285c108 0 206 -72 206 -188c0 -120 -82 -212 -190 -232zM382 362h1c74 0 119 43 119 103c0 45 -41 77 -85 77h-143l-40 -180h148zM490 728h-114l-63 144h76l54 -89l90 89h80z" />
    <glyph glyph-name="rcaron" unicode="&#x159;" horiz-adv-x="360" 
d="M136 0h-127l107 483h127l-14 -63c42 46 94 75 171 75l-28 -126c-8 2 -26 6 -46 6c-47 0 -92 -26 -120 -58zM330 556h-114l-63 144h76l54 -89l90 89h80z" />
    <glyph glyph-name="Sacute" unicode="&#x15a;" horiz-adv-x="600" 
d="M301 -12c-131 0 -246 51 -302 125l88 105c46 -62 133 -104 225 -104c72 0 101 41 101 75c0 94 -325 76 -325 271c0 110 97 217 261 217c106 0 206 -39 266 -108l-89 -102c-50 58 -131 85 -199 85c-51 0 -89 -30 -89 -66c0 -87 326 -76 326 -269
c0 -122 -98 -229 -263 -229zM606 872l-194 -144h-91l166 144h119z" />
    <glyph glyph-name="sacute" unicode="&#x15b;" horiz-adv-x="477" 
d="M219 -12c-88 0 -173 30 -227 87l71 89c29 -34 99 -76 169 -76c43 0 70 23 70 50c0 65 -246 49 -246 194c0 84 70 163 199 163c82 0 159 -31 205 -78l-66 -85c-23 30 -83 63 -142 63c-45 0 -70 -20 -70 -45c0 -59 246 -46 246 -193c0 -92 -77 -169 -209 -169zM512 700
l-194 -144h-91l166 144h119z" />
    <glyph glyph-name="Scircumflex" unicode="&#x15c;" horiz-adv-x="600" 
d="M512 728h-76l-54 89l-90 -89h-80l124 144h114zM301 -12c-131 0 -246 51 -302 125l88 105c46 -62 133 -104 225 -104c72 0 101 41 101 75c0 94 -325 76 -325 271c0 110 97 217 261 217c106 0 206 -39 266 -108l-89 -102c-50 58 -131 85 -199 85c-51 0 -89 -30 -89 -66
c0 -87 326 -76 326 -269c0 -122 -98 -229 -263 -229z" />
    <glyph glyph-name="scircumflex" unicode="&#x15d;" horiz-adv-x="477" 
d="M219 -12c-88 0 -173 30 -227 87l71 89c29 -34 99 -76 169 -76c43 0 70 23 70 50c0 65 -246 49 -246 194c0 84 70 163 199 163c82 0 159 -31 205 -78l-66 -85c-23 30 -83 63 -142 63c-45 0 -70 -20 -70 -45c0 -59 246 -46 246 -193c0 -92 -77 -169 -209 -169zM456 556h-76
l-54 89l-90 -89h-80l124 144h114z" />
    <glyph glyph-name="Scedilla" unicode="&#x15e;" horiz-adv-x="600" 
d="M212 -195c-53 0 -96 18 -119 41l35 47c24 -22 54 -35 85 -35c30 0 49 14 49 35c0 14 -10 24 -29 24c-12 0 -22 -5 -30 -14l-40 26l40 69c-89 17 -163 60 -204 115l88 105c46 -62 133 -104 225 -104c72 0 101 41 101 75c0 94 -325 76 -325 271c0 110 97 217 261 217
c106 0 206 -39 266 -108l-89 -102c-50 58 -131 85 -199 85c-51 0 -89 -30 -89 -66c0 -87 326 -76 326 -269c0 -122 -98 -229 -263 -229c-14 0 -28 1 -41 2l-25 -41c10 8 19 10 31 10c33 0 59 -23 59 -62c0 -56 -49 -92 -113 -92z" />
    <glyph glyph-name="scedilla" unicode="&#x15f;" horiz-adv-x="477" 
d="M156 -195c-53 0 -96 18 -119 41l35 47c24 -22 54 -35 85 -35c30 0 49 14 49 35c0 14 -10 24 -29 24c-12 0 -22 -5 -30 -14l-40 26l38 66c-60 12 -115 39 -153 80l71 89c29 -34 99 -76 169 -76c43 0 70 23 70 50c0 65 -246 49 -246 194c0 84 70 163 199 163
c82 0 159 -31 205 -78l-66 -85c-23 30 -83 63 -142 63c-45 0 -70 -20 -70 -45c0 -59 246 -46 246 -193c0 -92 -77 -169 -209 -169h-16l-24 -39c10 8 19 10 31 10c33 0 59 -23 59 -62c0 -56 -49 -92 -113 -92z" />
    <glyph glyph-name="Tcommaaccent" unicode="&#x162;" horiz-adv-x="582" 
d="M309 0h-143l120 542h-195l27 125h532l-27 -125h-195zM279 -121c0 -61 -52 -128 -118 -161l-35 37c30 14 67 42 80 70h-9c-26 0 -48 18 -48 51c0 37 34 68 69 68c32 0 61 -22 61 -65z" />
    <glyph glyph-name="Tcommaaccent" unicode="&#x21a;" horiz-adv-x="582" 
d="M309 0h-143l120 542h-195l27 125h532l-27 -125h-195zM279 -121c0 -61 -52 -128 -118 -161l-35 37c30 14 67 42 80 70h-9c-26 0 -48 18 -48 51c0 37 34 68 69 68c32 0 61 -22 61 -65z" />
    <glyph glyph-name="tcommaaccent" unicode="&#x163;" horiz-adv-x="338" 
d="M203 -12c-86 0 -144 33 -144 105c0 6 1 21 4 33l54 246h-80l25 111h80l29 132h127l-29 -132h98l-25 -111h-98l-47 -212c-1 -6 -1 -11 -1 -17c0 -26 15 -42 47 -42c13 0 29 5 35 10l4 -102c-18 -13 -48 -21 -79 -21zM156 -121c0 -61 -52 -128 -118 -161l-35 37
c30 14 67 42 80 70h-9c-26 0 -48 18 -48 51c0 37 34 68 69 68c32 0 61 -22 61 -65z" />
    <glyph glyph-name="tcommaaccent" unicode="&#x21b;" horiz-adv-x="338" 
d="M203 -12c-86 0 -144 33 -144 105c0 6 1 21 4 33l54 246h-80l25 111h80l29 132h127l-29 -132h98l-25 -111h-98l-47 -212c-1 -6 -1 -11 -1 -17c0 -26 15 -42 47 -42c13 0 29 5 35 10l4 -102c-18 -13 -48 -21 -79 -21zM156 -121c0 -61 -52 -128 -118 -161l-35 37
c30 14 67 42 80 70h-9c-26 0 -48 18 -48 51c0 37 34 68 69 68c32 0 61 -22 61 -65z" />
    <glyph glyph-name="Tcaron" unicode="&#x164;" horiz-adv-x="582" 
d="M309 0h-143l120 542h-195l27 125h532l-27 -125h-195zM457 728h-114l-63 144h76l54 -89l90 89h80z" />
    <glyph glyph-name="tcaron" unicode="&#x165;" horiz-adv-x="380" 
d="M203 -12c-86 0 -144 33 -144 105c0 6 1 21 4 33l54 246h-80l25 111h80l29 132h127l-29 -132h98l-25 -111h-98l-47 -212c-1 -6 -1 -11 -1 -17c0 -26 15 -42 47 -42c13 0 29 5 35 10l4 -102c-18 -13 -48 -21 -79 -21zM499 700c0 -61 -52 -128 -118 -161l-35 37
c30 14 67 42 80 70h-9c-26 0 -48 18 -48 51c0 37 34 68 69 68c32 0 61 -22 61 -65z" />
    <glyph glyph-name="Tbar" unicode="&#x166;" horiz-adv-x="582" 
d="M309 0h-143l58 263h-133l16 72h133l46 207h-195l27 125h532l-27 -125h-195l-46 -207h134l-16 -72h-134z" />
    <glyph glyph-name="tbar" unicode="&#x167;" horiz-adv-x="338" 
d="M203 -12c-86 0 -144 33 -144 105c0 6 1 21 4 33l18 83h-80l15 72h81l20 91h-80l25 111h80l29 132h127l-29 -132h98l-25 -111h-98l-20 -91h68l-16 -72h-68l-11 -49c-1 -6 -1 -11 -1 -17c0 -26 15 -42 47 -42c13 0 29 5 35 10l4 -102c-18 -13 -48 -21 -79 -21z" />
    <glyph glyph-name="Utilde" unicode="&#x168;" horiz-adv-x="734" 
d="M356 -12c-191 0 -290 94 -290 233c0 13 3 35 5 46l88 400h144l-87 -397c-2 -6 -4 -19 -4 -33c1 -67 50 -124 144 -124c102 0 152 64 173 157l87 397h145l-89 -400c-35 -162 -119 -279 -316 -279zM547 726c-70 0 -74 68 -120 68c-20 0 -36 -19 -45 -62h-68
c17 85 51 134 121 134s75 -67 121 -67c20 0 35 19 45 61h68c-18 -85 -52 -134 -122 -134z" />
    <glyph glyph-name="utilde" unicode="&#x169;" horiz-adv-x="579" 
d="M115 483h127l-64 -292c-2 -9 -4 -19 -4 -28c0 -44 36 -62 82 -62c44 0 86 29 114 57l72 325h127l-107 -483h-127l14 62c-38 -36 -90 -74 -161 -74c-93 0 -152 48 -152 123c0 9 3 30 6 40zM429 554c-70 0 -74 68 -120 68c-20 0 -36 -19 -45 -62h-68c17 85 51 134 121 134
s75 -67 121 -67c20 0 35 19 45 61h68c-18 -85 -52 -134 -122 -134z" />
    <glyph glyph-name="Umacron" unicode="&#x16a;" horiz-adv-x="734" 
d="M356 -12c-191 0 -290 94 -290 233c0 13 3 35 5 46l88 400h144l-87 -397c-2 -6 -4 -19 -4 -33c1 -67 50 -124 144 -124c102 0 152 64 173 157l87 397h145l-89 -400c-35 -162 -119 -279 -316 -279zM661 747h-362l16 73h362z" />
    <glyph glyph-name="umacron" unicode="&#x16b;" horiz-adv-x="579" 
d="M115 483h127l-64 -292c-2 -9 -4 -19 -4 -28c0 -44 36 -62 82 -62c44 0 86 29 114 57l72 325h127l-107 -483h-127l14 62c-38 -36 -90 -74 -161 -74c-93 0 -152 48 -152 123c0 9 3 30 6 40zM543 574h-362l16 73h362z" />
    <glyph glyph-name="Ubreve" unicode="&#x16c;" horiz-adv-x="734" 
d="M356 -12c-191 0 -290 94 -290 233c0 13 3 35 5 46l88 400h144l-87 -397c-2 -6 -4 -19 -4 -33c1 -67 50 -124 144 -124c102 0 152 64 173 157l87 397h145l-89 -400c-35 -162 -119 -279 -316 -279zM668 803c-52 -54 -122 -88 -194 -88c-71 0 -128 34 -157 88l64 47
c19 -37 55 -62 106 -62c50 0 96 23 133 62z" />
    <glyph glyph-name="ubreve" unicode="&#x16d;" horiz-adv-x="579" 
d="M115 483h127l-64 -292c-2 -9 -4 -19 -4 -28c0 -44 36 -62 82 -62c44 0 86 29 114 57l72 325h127l-107 -483h-127l14 62c-38 -36 -90 -74 -161 -74c-93 0 -152 48 -152 123c0 9 3 30 6 40zM555 644c-52 -54 -122 -88 -194 -88c-71 0 -128 34 -157 88l64 47
c19 -37 55 -62 106 -62c50 0 96 23 133 62z" />
    <glyph glyph-name="Uring" unicode="&#x16e;" horiz-adv-x="734" 
d="M356 -12c-191 0 -290 94 -290 233c0 13 3 35 5 46l88 400h144l-87 -397c-2 -6 -4 -19 -4 -33c1 -67 50 -124 144 -124c102 0 152 64 173 157l87 397h145l-89 -400c-35 -162 -119 -279 -316 -279zM480 692c-57 0 -96 39 -96 96c0 62 53 115 115 115c57 0 96 -39 96 -96
c0 -62 -53 -115 -115 -115zM485 751c27 0 51 23 51 50c0 25 -17 43 -42 43c-27 0 -51 -23 -51 -50c0 -25 17 -43 42 -43z" />
    <glyph glyph-name="uring" unicode="&#x16f;" horiz-adv-x="579" 
d="M115 483h127l-64 -292c-2 -9 -4 -19 -4 -28c0 -44 36 -62 82 -62c44 0 86 29 114 57l72 325h127l-107 -483h-127l14 62c-38 -36 -90 -74 -161 -74c-93 0 -152 48 -152 123c0 9 3 30 6 40zM370 547c-57 0 -96 39 -96 96c0 62 53 115 115 115c57 0 96 -39 96 -96
c0 -62 -53 -115 -115 -115zM375 606c27 0 51 23 51 50c0 25 -17 43 -42 43c-27 0 -51 -23 -51 -50c0 -25 17 -43 42 -43z" />
    <glyph glyph-name="Uhungarumlaut" unicode="&#x170;" horiz-adv-x="734" 
d="M356 -12c-191 0 -290 94 -290 233c0 13 3 35 5 46l88 400h144l-87 -397c-2 -6 -4 -19 -4 -33c1 -67 50 -124 144 -124c102 0 152 64 173 157l87 397h145l-89 -400c-35 -162 -119 -279 -316 -279zM574 872l-147 -144h-76l119 144h104zM723 872l-147 -144h-76l119 144h104z
" />
    <glyph glyph-name="uhungarumlaut" unicode="&#x171;" horiz-adv-x="579" 
d="M115 483h127l-64 -292c-2 -9 -4 -19 -4 -28c0 -44 36 -62 82 -62c44 0 86 29 114 57l72 325h127l-107 -483h-127l14 62c-38 -36 -90 -74 -161 -74c-93 0 -152 48 -152 123c0 9 3 30 6 40zM456 700l-147 -144h-76l119 144h104zM605 700l-147 -144h-76l119 144h104z" />
    <glyph glyph-name="Uogonek" unicode="&#x172;" horiz-adv-x="734" 
d="M443 -99l43 -36c-23 -30 -52 -51 -94 -51c-50 0 -94 25 -94 76c0 36 16 70 46 98c-183 4 -278 97 -278 233c0 13 3 35 5 46l88 400h144l-87 -397c-2 -6 -4 -19 -4 -33c1 -67 50 -124 144 -124c102 0 152 64 173 157l87 397h145l-89 -400c-29 -132 -90 -234 -217 -267
c-60 -26 -94 -60 -94 -99c0 -22 14 -33 35 -33c20 0 35 13 47 33z" />
    <glyph glyph-name="uogonek" unicode="&#x173;" horiz-adv-x="579" 
d="M450 -99l43 -36c-23 -30 -52 -51 -94 -51c-50 0 -94 25 -94 76c0 41 21 80 60 110h-30l14 62c-38 -36 -90 -74 -161 -74c-93 0 -152 48 -152 123c0 9 3 30 6 40l73 332h127l-64 -292c-2 -9 -4 -19 -4 -28c0 -44 36 -62 82 -62c44 0 86 29 114 57l72 325h127l-107 -483
c-60 -26 -94 -60 -94 -99c0 -22 14 -33 35 -33c20 0 35 13 47 33z" />
    <glyph glyph-name="Wcircumflex" unicode="&#x174;" horiz-adv-x="918" 
d="M673 0h-151l-16 458l-217 -458h-151l-44 667h156l10 -482l233 482h111l20 -482l223 482h163zM717 728h-76l-54 89l-90 -89h-80l124 144h114z" />
    <glyph glyph-name="wcircumflex" unicode="&#x175;" horiz-adv-x="770" 
d="M569 0h-136l-30 329l-174 -329h-136l-40 483h128l18 -325l178 325h113l33 -325l163 325h137zM604 556h-76l-54 89l-90 -89h-80l124 144h114z" />
    <glyph glyph-name="Ycircumflex" unicode="&#x176;" horiz-adv-x="645" 
d="M582 728h-76l-54 89l-90 -89h-80l124 144h114zM340 0h-142l60 273l-169 394h154l106 -267l224 267h169l-341 -394z" />
    <glyph glyph-name="ycircumflex" unicode="&#x177;" horiz-adv-x="513" 
d="M-48 -184l42 110c11 -5 31 -7 49 -7c26 0 43 8 60 33l30 46l-86 485h132l51 -336l202 336h140l-352 -562c-53 -86 -107 -117 -187 -117c-28 0 -58 4 -81 12zM476 556h-76l-54 89l-90 -89h-80l124 144h114z" />
    <glyph glyph-name="Zacute" unicode="&#x179;" horiz-adv-x="592" 
d="M496 0h-508l25 115l401 427h-306l27 125h501l-24 -114l-403 -428h315zM604 872l-194 -144h-91l166 144h119z" />
    <glyph glyph-name="zacute" unicode="&#x17a;" horiz-adv-x="479" 
d="M383 0h-395l21 95l275 277h-213l24 111h391l-21 -91l-279 -281h220zM509 700l-194 -144h-91l166 144h119z" />
    <glyph glyph-name="Zdotaccent" unicode="&#x17b;" horiz-adv-x="592" 
d="M496 0h-508l25 115l401 427h-306l27 125h501l-24 -114l-403 -428h315zM479 791c0 -40 -37 -75 -77 -75c-34 0 -60 26 -60 60c0 40 37 76 77 76c34 0 60 -26 60 -61z" />
    <glyph glyph-name="zdotaccent" unicode="&#x17c;" horiz-adv-x="479" 
d="M383 0h-395l21 95l275 277h-213l24 111h391l-21 -91l-279 -281h220zM390 626c0 -40 -37 -75 -77 -75c-34 0 -60 26 -60 60c0 40 37 76 77 76c34 0 60 -26 60 -61z" />
    <glyph glyph-name="longs" unicode="&#x17f;" horiz-adv-x="327" 
d="M165 0h-127l82 372h-80l25 111h79l4 20c22 92 70 174 181 174c55 0 102 -15 134 -48l-64 -75c-14 13 -34 19 -54 19c-39 0 -59 -23 -69 -70z" />
    <glyph glyph-name="AEacute" unicode="&#x1fc;" horiz-adv-x="968" 
d="M872 0h-472l25 113h-230l-91 -113h-167l553 667h529l-27 -125h-330l-30 -140h322l-28 -125h-322l-34 -152h330zM453 238l61 280l-224 -280h163zM830 872l-194 -144h-91l166 144h119z" />
    <glyph glyph-name="aeacute" unicode="&#x1fd;" horiz-adv-x="914" 
d="M653 -12c-92 0 -142 40 -167 91l-17 -79h-128l14 60c-41 -48 -88 -72 -145 -72c-110 0 -184 72 -184 200c0 146 90 307 254 307c65 0 123 -28 154 -76l14 64h128l-13 -56c39 41 89 68 146 68c113 0 176 -71 176 -206c0 -31 -6 -74 -10 -89h-357c0 -3 -1 -9 -1 -12
c0 -41 44 -94 134 -94c42 0 89 13 120 36l39 -92c-47 -32 -109 -50 -157 -50zM301 382c-83 0 -142 -79 -142 -168c0 -69 46 -113 107 -113c45 0 84 25 111 58l37 167c-21 33 -62 56 -113 56zM771 288c0 2 1 8 1 10c0 49 -34 93 -110 93c-68 0 -120 -50 -131 -103h240z
M693 700l-194 -144h-91l166 144h119z" />
    <glyph glyph-name="Oslashacute" unicode="&#x1fe;" horiz-adv-x="765" 
d="M692 872l-194 -144h-91l166 144h119zM372 -12c-80 0 -151 21 -207 60l-47 -48h-103l95 97c-42 49 -66 114 -66 190c0 218 168 391 388 391c74 0 143 -19 197 -54l42 43h102l-88 -89c47 -50 75 -118 75 -198c0 -218 -168 -392 -388 -392zM380 114c129 0 231 113 231 256
c0 40 -11 75 -29 103l-318 -324c31 -23 71 -35 116 -35zM193 296c0 -36 8 -67 22 -93l315 320c-30 19 -67 29 -107 29c-129 0 -230 -113 -230 -256z" />
    <glyph glyph-name="oslashacute" unicode="&#x1ff;" horiz-adv-x="575" 
d="M558 700l-194 -144h-91l166 144h119zM67 0h-83l82 76c-26 36 -39 81 -39 132c0 150 116 287 279 287c65 0 119 -17 158 -46l37 34h85l-81 -75c27 -36 41 -82 41 -133c0 -150 -116 -287 -280 -287c-67 0 -121 17 -161 48zM271 101c85 0 143 81 143 168c0 17 -3 33 -8 47
l-208 -194c19 -14 43 -21 73 -21zM158 214c0 -17 2 -32 7 -45l207 193c-18 13 -42 20 -70 20c-85 0 -144 -81 -144 -168z" />
    <glyph glyph-name="Scommaaccent" unicode="&#x218;" horiz-adv-x="614" 
d="M311 -12c-131 0 -246 51 -302 125l88 105c46 -62 133 -104 225 -104c72 0 101 41 101 75c0 94 -325 76 -325 271c0 110 97 217 261 217c106 0 206 -39 266 -108l-89 -102c-50 58 -131 85 -199 85c-51 0 -89 -30 -89 -66c0 -87 326 -76 326 -269
c0 -122 -98 -229 -263 -229zM293 -121c0 -61 -52 -128 -118 -161l-35 37c30 14 67 42 80 70h-9c-26 0 -48 18 -48 51c0 37 34 68 69 68c32 0 61 -22 61 -65z" />
    <glyph glyph-name="scommaaccent" unicode="&#x219;" horiz-adv-x="484" 
d="M219 -12c-88 0 -173 30 -227 87l71 89c29 -34 99 -76 169 -76c43 0 70 23 70 50c0 65 -246 49 -246 194c0 84 70 163 199 163c82 0 159 -31 205 -78l-66 -85c-23 30 -83 63 -142 63c-45 0 -70 -20 -70 -45c0 -59 246 -46 246 -193c0 -92 -77 -169 -209 -169zM230 -121
c0 -61 -52 -128 -118 -161l-35 37c30 14 67 42 80 70h-9c-26 0 -48 18 -48 51c0 37 34 68 69 68c32 0 61 -22 61 -65z" />
    <glyph glyph-name="hsuperior" unicode="&#x2b0;" horiz-adv-x="411" 
d="M398 326h-92l41 186c1 6 2 13 2 18c0 27 -20 40 -51 40c-30 0 -55 -20 -73 -37l-46 -207h-92l96 434h92l-35 -159c24 23 59 47 105 47c65 0 104 -30 104 -83c0 -6 -2 -18 -4 -30z" />
    <glyph glyph-name="hsuperior" unicode="&#xf637;" horiz-adv-x="411" 
d="M398 326h-92l41 186c1 6 2 13 2 18c0 27 -20 40 -51 40c-30 0 -55 -20 -73 -37l-46 -207h-92l96 434h92l-35 -159c24 23 59 47 105 47c65 0 104 -30 104 -83c0 -6 -2 -18 -4 -30z" />
    <glyph glyph-name="frenchfranc" unicode="&#x20a3;" horiz-adv-x="580" 
d="M163 0h-142l24 109h-67l16 73h67l107 485h472l-28 -125h-329l-31 -140h322l-27 -125h-323l-21 -95h153l-16 -73h-153z" />
    <glyph glyph-name="lira" unicode="&#x20a4;" horiz-adv-x="550" 
d="M42 333l15 66h46c-7 18 -11 38 -11 61c0 120 118 217 262 217c112 0 208 -48 235 -134l-128 -53c-10 45 -51 71 -101 71c-63 0 -114 -48 -114 -116c0 -18 3 -32 8 -46h173l-14 -66h-132c3 -13 6 -26 6 -42c0 -4 0 -7 -1 -10h115l-14 -65h-121c-20 -35 -49 -63 -74 -77
c18 6 30 8 45 8c58 0 90 -33 143 -33c36 0 62 16 81 36l31 -113c-27 -28 -65 -50 -123 -50c-87 0 -156 44 -219 44c-35 0 -70 -13 -112 -38l-26 97c62 27 113 74 131 126h-127l15 65h118c-3 18 -9 35 -16 52h-91z" />
    <glyph glyph-name="uni20A6" unicode="&#x20a6;" horiz-adv-x="747" 
d="M618 0h-137l-115 231h-152l-51 -231h-142l51 231h-67l17 72h66l14 66h-66l16 73h66l50 225h146l113 -225h146l50 225h142l-50 -225h64l-16 -73h-64l-14 -66h64l-17 -72h-63zM261 442l-31 -139h100zM464 369l64 -127l28 127h-92z" />
    <glyph glyph-name="peseta" unicode="&#x20a7;" horiz-adv-x="678" 
d="M163 0h-142l91 416h-66l16 73h66l40 178h305c104 0 182 -80 186 -178h66l-16 -73h-60c-24 -87 -101 -178 -266 -178h-167zM392 363c48 0 86 21 105 53h-242l-12 -53h149zM283 542l-12 -53h237c-10 32 -40 53 -80 53h-145z" />
    <glyph glyph-name="rupee" unicode="&#x20a8;" horiz-adv-x="1072" 
d="M553 0h-158l-79 237h-110l-52 -237h-142l147 667h285c108 0 206 -72 206 -188c0 -120 -82 -212 -190 -232zM382 362h1c74 0 119 43 119 103c0 45 -41 77 -85 77h-143l-40 -180h148zM813 -12c-88 0 -173 30 -227 87l71 89c29 -34 99 -76 169 -76c43 0 70 23 70 50
c0 65 -246 49 -246 194c0 84 70 163 199 163c82 0 159 -31 205 -78l-66 -85c-23 30 -83 63 -142 63c-45 0 -70 -20 -70 -45c0 -59 246 -46 246 -193c0 -92 -77 -169 -209 -169z" />
    <glyph glyph-name="uni20A9" unicode="&#x20a9;" horiz-adv-x="918" 
d="M673 0h-151l-8 231h-116l-109 -231h-151l-15 231h-114l17 72h92l-4 66h-74l16 73h53l-15 225h156l4 -225h130l109 225h111l9 -225h130l104 225h163l-114 -225h50l-16 -73h-71l-33 -66h90l-17 -72h-109zM256 369l4 -184l89 184h-93zM616 369l8 -184l85 184h-93zM506 458
l-74 -155h79z" />
    <glyph glyph-name="afii57636" unicode="&#x20aa;" horiz-adv-x="845" 
d="M542 0h-334l82 373h120l-58 -263h187c73 0 102 40 119 120l71 320h120l-73 -331c-30 -137 -80 -219 -234 -219zM130 550h246c129 0 230 -43 230 -170c0 -20 -4 -49 -9 -71l-29 -133h-120l30 135c3 12 5 29 5 40c0 59 -38 89 -103 89h-154l-97 -440h-120z" />
    <glyph glyph-name="afii61289" unicode="&#x2113;" horiz-adv-x="526" 
d="M120 500l-83 -374c-3 -13 -4 -27 -4 -35c0 -65 53 -103 145 -103c32 0 60 7 79 21l-6 97c-8 -6 -22 -11 -35 -11c-30 0 -48 17 -48 39c0 8 1 14 2 21l20 88l182 104c59 33 195 109 195 188c0 87 -103 142 -209 142c-128 0 -214 -66 -238 -177zM349 438l-133 -76l28 125
c14 65 55 102 115 102c44 0 84 -22 84 -62c0 -35 -38 -57 -94 -89z" />
    <glyph glyph-name="afii61352" unicode="&#x2116;" horiz-adv-x="1134" 
d="M609 0h-137l-220 442l-98 -442h-142l147 667h146l214 -425l95 425h142zM971 350c-101 0 -163 61 -163 146c0 105 90 184 190 184s162 -61 162 -146c0 -105 -89 -184 -189 -184zM973 424c61 0 93 58 93 111c0 43 -27 69 -70 69c-61 0 -93 -58 -93 -111
c0 -42 27 -69 70 -69z" />
    <glyph glyph-name="published" unicode="&#x2117;" horiz-adv-x="778" 
d="M754 334c0 -190 -156 -345 -346 -345s-344 155 -344 345s154 345 344 345s346 -155 346 -345zM718 334c0 169 -141 309 -310 309s-308 -140 -308 -309s139 -309 308 -309s310 140 310 309zM595 430c0 -76 -64 -132 -147 -132h-121l-36 -167h-45l89 405h136
c66 0 124 -38 124 -106zM548 427c0 40 -32 68 -83 68h-94l-34 -155h118c55 0 93 39 93 87z" />
    <glyph glyph-name="servicemark" unicode="&#x2120;" horiz-adv-x="476" 
d="M484 447h-28l40 182l-115 -182h-8l-35 182l-40 -182h-28l48 220h42l29 -160l99 160h44zM247 511c0 -42 -33 -72 -85 -72c-47 0 -80 16 -96 40l22 19c12 -17 38 -33 72 -33c33 0 52 17 52 40c0 46 -114 41 -114 100c0 39 35 68 84 68c39 0 73 -15 86 -35l-23 -17
c-14 20 -40 28 -65 28c-30 0 -48 -18 -48 -37c0 -45 115 -36 115 -101z" />
    <glyph glyph-name="estimated" unicode="&#x212e;" horiz-adv-x="842" 
d="M829 324h-632c-3 0 -4 -2 -4 -5v-190c0 -9 2 -17 9 -23c60 -63 146 -103 240 -103c101 0 189 44 250 115h57c-71 -83 -183 -136 -309 -136c-215 0 -390 157 -390 351s175 351 390 351s390 -157 390 -351zM687 349v191c0 9 -4 18 -10 24c-60 61 -144 99 -236 99
c-94 0 -178 -40 -238 -102c-6 -6 -10 -15 -10 -24v-188c0 -3 2 -6 5 -6h485c3 0 4 3 4 6z" />
    <glyph glyph-name="arrowleft" unicode="&#x2190;" horiz-adv-x="582" 
d="M558 211h-269l12 -130l-281 205l281 204l-12 -129h269v-150z" />
    <glyph glyph-name="arrowup" unicode="&#x2191;" horiz-adv-x="582" 
d="M236 17v269l-130 -12l205 281l204 -281l-129 12v-269h-150z" />
    <glyph glyph-name="arrowright" unicode="&#x2192;" horiz-adv-x="582" 
d="M604 286l-281 -205l12 130h-268v150h268l-12 129z" />
    <glyph glyph-name="arrowdown" unicode="&#x2193;" horiz-adv-x="582" 
d="M386 555v-269l130 12l-205 -281l-204 281l129 -12v269h150z" />
    <glyph glyph-name="triangleright" unicode="&#x22b2;" horiz-adv-x="587" 
d="M609 286l-535 -309v618z" />
    <glyph glyph-name="triangleleft" unicode="&#x22b3;" horiz-adv-x="587" 
d="M555 595v-618l-535 309z" />
    <glyph glyph-name="blacksquare" unicode="&#x25a0;" horiz-adv-x="661" 
d="M638 0h-571v572h571v-572z" />
    <glyph glyph-name="triagup" unicode="&#x25b2;" horiz-adv-x="616" 
d="M637 29l-619 1l309 535z" />
    <glyph glyph-name="triagdn" unicode="&#x25bc;" horiz-adv-x="616" 
d="M637 510l-310 -535l-309 535h619z" />
    <glyph glyph-name="circlesolid" unicode="&#x25cf;" horiz-adv-x="695" 
d="M664 285c0 -164 -133 -297 -297 -297s-297 133 -297 297s133 297 297 297s297 -133 297 -297z" />
    <glyph glyph-name="blackstar" unicode="&#x2605;" horiz-adv-x="759" 
d="M779 421l-235 -171l90 -275l-235 170l-234 -170l89 275l-234 171h290l89 276l90 -276h290z" />
    <glyph glyph-name="ballotbox" unicode="&#x2610;" horiz-adv-x="661" 
d="M636 0h-571v572h571v-572zM550 79v414h-399v-414h399z" />
    <glyph glyph-name="boxchecked" unicode="&#x2611;" horiz-adv-x="661" 
d="M656 0h-571v572h486l92 168l68 -42l-75 -139v-559zM570 79v322l-168 -310l-202 246l61 57l129 -155l138 254h-357v-414h399z" />
    <glyph glyph-name="diamond" unicode="&#x2666;" horiz-adv-x="501" 
d="M521 285l-251 -250l-250 250l250 251z" />
    <glyph glyph-name="checkmark" unicode="&#x2713;" horiz-adv-x="531" 
d="M551 698l-329 -607l-202 246l61 57l129 -155l273 501z" />
    <glyph glyph-name="perthousand.onum" unicode="&#xf628;" horiz-adv-x="905" 
d="M338 441c0 -81 -64 -155 -152 -155c-74 0 -125 44 -125 120c0 81 62 156 151 156c73 0 126 -45 126 -121zM601 550l-505 -550h-71l504 550h72zM261 438c0 33 -20 58 -53 58c-38 0 -70 -41 -70 -87c0 -33 19 -57 52 -57c38 0 71 40 71 86zM566 145
c0 -81 -64 -155 -153 -155c-73 0 -125 44 -125 120c0 81 63 156 151 156c74 0 127 -45 127 -121zM488 142c0 33 -19 58 -52 58c-39 0 -70 -41 -70 -87c0 -33 19 -56 51 -56c39 0 71 39 71 85zM857 145c0 -81 -64 -155 -152 -155c-74 0 -125 44 -125 120c0 81 62 156 151 156
c73 0 126 -45 126 -121zM780 142c0 33 -20 58 -52 58c-39 0 -70 -41 -70 -87c0 -33 18 -56 51 -56c39 0 71 39 71 85z" />
    <glyph glyph-name="zero.tzero" unicode="&#xf638;" horiz-adv-x="632" 
d="M291 -12c-64 0 -118 18 -158 54l-37 -42h-104l91 104c-21 41 -33 92 -33 153c0 216 135 420 332 420c63 0 116 -18 157 -53l37 43h104l-92 -105c22 -41 34 -93 34 -153c0 -216 -134 -421 -331 -421zM304 114c111 0 174 173 174 302c0 6 0 13 -1 19l-253 -289
c18 -20 44 -32 80 -32zM194 250v-19l253 288c-18 20 -44 32 -79 32c-111 0 -174 -172 -174 -301z" />
    <glyph glyph-name="zero.tnum" unicode="&#xf639;" horiz-adv-x="623" 
d="M286 -12c-145 0 -241 97 -241 269c0 216 135 420 332 420c145 0 240 -96 240 -268c0 -216 -134 -421 -331 -421zM299 114c111 0 174 173 174 302c0 79 -32 135 -110 135c-111 0 -174 -172 -174 -301c0 -79 32 -136 110 -136z" />
    <glyph glyph-name="two.tnum" unicode="&#xf63a;" horiz-adv-x="623" 
d="M515 0h-502l29 132c282 160 428 249 428 342c0 49 -50 78 -120 78c-73 0 -127 -27 -166 -60l-60 102c59 52 149 83 237 83c136 0 258 -67 258 -194c0 -131 -138 -245 -349 -358h272z" />
    <glyph glyph-name="three.tnum" unicode="&#xf63b;" horiz-adv-x="623" 
d="M305 -12c-122 0 -242 50 -292 139l95 86c42 -66 126 -99 196 -99c78 0 118 40 118 92c0 39 -30 70 -122 70c-28 0 -70 -1 -80 -2l28 128c11 -1 68 -1 94 -1c74 0 130 21 130 77c0 44 -49 73 -132 73c-57 0 -115 -17 -162 -54l-51 97c55 50 137 83 227 83
c159 0 264 -64 264 -174c0 -90 -93 -154 -180 -165c69 -17 125 -61 125 -146c0 -118 -115 -204 -258 -204z" />
    <glyph glyph-name="four.tnum" unicode="&#xf63c;" horiz-adv-x="623" 
d="M442 0h-142l30 138h-319l28 124l346 405h204l-89 -404h85l-27 -125h-86zM357 263l62 278l-242 -278h180z" />
    <glyph glyph-name="five.tnum" unicode="&#xf63d;" horiz-adv-x="623" 
d="M301 -12c-130 0 -223 47 -278 129l101 89c36 -58 99 -92 179 -92c78 0 126 49 126 109c0 57 -51 89 -126 89c-52 0 -85 -12 -122 -40l-92 37l79 358h458l-27 -125h-316l-35 -157c35 28 75 43 133 43c108 0 197 -67 197 -189c0 -136 -111 -251 -277 -251z" />
    <glyph glyph-name="six.tnum" unicode="&#xf63e;" horiz-adv-x="623" 
d="M311 -12c-164 0 -262 95 -262 258c0 216 128 431 359 431c98 0 172 -35 223 -90l-88 -101c-31 42 -85 65 -144 65c-98 0 -161 -82 -187 -164c-4 -9 -7 -19 -9 -26c36 37 103 70 173 70c119 0 212 -70 212 -184c0 -142 -125 -259 -277 -259zM311 114c73 0 128 52 128 115
c0 54 -57 88 -128 88c-47 0 -89 -20 -122 -50c-1 -8 -1 -25 -1 -35c0 -72 52 -118 123 -118z" />
    <glyph glyph-name="seven.tnum" unicode="&#xf63f;" horiz-adv-x="623" 
d="M263 0h-163l357 542h-329l27 125h501l-22 -99z" />
    <glyph glyph-name="eight.tnum" unicode="&#xf640;" horiz-adv-x="623" 
d="M294 -12c-140 0 -270 54 -270 179c0 86 66 161 185 191c-54 24 -101 72 -101 134c0 131 138 185 262 185c127 0 260 -54 260 -171c0 -88 -69 -154 -173 -175c63 -33 111 -86 111 -151c0 -121 -132 -192 -274 -192zM346 399c77 5 131 34 131 80c0 41 -51 71 -116 71
c-59 0 -111 -28 -111 -75c0 -36 53 -66 96 -76zM301 114c61 0 124 32 124 81c0 44 -57 74 -106 86c-80 -4 -144 -36 -144 -88s52 -79 126 -79z" />
    <glyph glyph-name="nine.tnum" unicode="&#xf641;" horiz-adv-x="623" 
d="M352 678c164 0 262 -95 262 -258c0 -216 -127 -431 -358 -431c-99 0 -173 35 -223 90l87 101c32 -42 86 -65 145 -65c97 0 160 82 187 164c4 9 7 19 8 26c-36 -37 -103 -70 -173 -70c-119 0 -211 70 -211 184c0 142 125 259 276 259zM352 552c-73 0 -128 -52 -128 -115
c0 -54 57 -88 129 -88c47 0 89 20 121 50c1 8 1 25 1 35c0 72 -52 118 -123 118z" />
    <glyph glyph-name="percent.onum" unicode="&#xf642;" horiz-adv-x="613" 
d="M338 441c0 -81 -64 -155 -152 -155c-74 0 -125 44 -125 120c0 81 62 156 151 156c73 0 126 -45 126 -121zM601 550l-505 -550h-71l504 550h72zM261 438c0 33 -20 58 -53 58c-38 0 -70 -41 -70 -87c0 -33 19 -57 52 -57c38 0 71 40 71 86zM566 145
c0 -81 -64 -155 -153 -155c-73 0 -125 44 -125 120c0 81 63 156 151 156c74 0 127 -45 127 -121zM488 142c0 33 -19 58 -52 58c-39 0 -70 -41 -70 -87c0 -33 19 -56 51 -56c39 0 71 39 71 85z" />
    <glyph glyph-name="zero.tonum" unicode="&#xf643;" horiz-adv-x="623" 
d="M600 320c0 -149 -104 -332 -301 -332c-167 0 -263 91 -263 242c0 149 104 332 301 332c167 0 263 -91 263 -242zM454 310c0 83 -43 126 -118 126c-103 0 -154 -113 -154 -196s43 -126 118 -126c103 0 154 113 154 196z" />
    <glyph glyph-name="one.tonum" unicode="&#xf644;" horiz-adv-x="623" 
d="M397 0h-142l80 367l-135 -113l-63 85l257 211h124z" />
    <glyph glyph-name="two.tonum" unicode="&#xf645;" horiz-adv-x="623" 
d="M488 0h-470l26 119c258 77 389 162 389 242c0 47 -45 75 -107 75c-66 0 -125 -23 -177 -65l-60 100c67 59 157 91 253 91c138 0 243 -60 243 -168c0 -129 -153 -221 -281 -269h211z" />
    <glyph glyph-name="three.tonum" unicode="&#xf646;" horiz-adv-x="623" 
d="M279 -133c-122 0 -242 50 -292 139l95 86c42 -66 126 -99 196 -99c78 0 118 40 118 92c0 39 -30 70 -122 70c-28 0 -70 -1 -80 -2l28 128c11 -1 68 -1 94 -1c74 0 130 21 130 77c0 44 -49 73 -132 73c-57 0 -115 -17 -162 -54l-51 97c55 50 137 83 227 83
c159 0 264 -64 264 -174c0 -90 -93 -154 -180 -165c69 -17 125 -61 125 -146c0 -118 -115 -204 -258 -204z" />
    <glyph glyph-name="four.tonum" unicode="&#xf647;" horiz-adv-x="623" 
d="M534 27h-86l-32 -144h-142l32 144h-319l24 113l356 410h196l-87 -398h85zM333 152l60 272l-240 -272h180z" />
    <glyph glyph-name="five.tonum" unicode="&#xf648;" horiz-adv-x="623" 
d="M275 -129c-130 0 -223 47 -278 129l101 89c36 -58 99 -92 179 -92c78 0 126 49 126 109c0 57 -51 89 -126 89c-52 0 -85 -12 -122 -40l-92 37l79 358h458l-27 -125h-316l-35 -157c35 28 75 43 133 43c108 0 197 -67 197 -189c0 -136 -111 -251 -277 -251z" />
    <glyph glyph-name="six.tonum" unicode="&#xf649;" horiz-adv-x="623" 
d="M311 -12c-164 0 -262 95 -262 258c0 216 128 431 359 431c98 0 172 -35 223 -90l-88 -101c-31 42 -85 65 -144 65c-98 0 -161 -82 -187 -164c-4 -9 -7 -19 -9 -26c36 37 103 70 173 70c119 0 212 -70 212 -184c0 -142 -125 -259 -277 -259zM311 114c73 0 128 52 128 115
c0 54 -57 88 -128 88c-47 0 -89 -20 -122 -50c-1 -8 -1 -25 -1 -35c0 -72 52 -118 123 -118z" />
    <glyph glyph-name="seven.tonum" unicode="&#xf64a;" horiz-adv-x="623" 
d="M237 -117h-163l357 542h-329l27 125h501l-22 -99z" />
    <glyph glyph-name="eight.tonum" unicode="&#xf64b;" horiz-adv-x="623" 
d="M294 -12c-140 0 -270 54 -270 179c0 86 66 161 185 191c-54 24 -101 72 -101 134c0 131 138 185 262 185c127 0 260 -54 260 -171c0 -88 -69 -154 -173 -175c63 -33 111 -86 111 -151c0 -121 -132 -192 -274 -192zM346 399c77 5 131 34 131 80c0 41 -51 71 -116 71
c-59 0 -111 -28 -111 -75c0 -36 53 -66 96 -76zM301 114c61 0 124 32 124 81c0 44 -57 74 -106 86c-80 -4 -144 -36 -144 -88s52 -79 126 -79z" />
    <glyph glyph-name="nine.tonum" unicode="&#xf64c;" horiz-adv-x="623" 
d="M326 561c164 0 262 -95 262 -258c0 -216 -127 -431 -358 -431c-99 0 -173 35 -223 90l87 101c32 -42 86 -65 145 -65c97 0 160 82 187 164c4 9 7 19 8 26c-36 -37 -103 -70 -173 -70c-119 0 -211 70 -211 184c0 142 125 259 276 259zM326 435c-73 0 -128 -52 -128 -115
c0 -54 57 -88 129 -88c47 0 89 20 121 50c1 8 1 25 1 35c0 72 -52 118 -123 118z" />
    <glyph glyph-name="colonmonetary.onum" unicode="&#xf64d;" horiz-adv-x="585" 
d="M169 -53l32 57c-14 5 -28 11 -41 18l-42 -75h-58l58 103c-55 45 -86 111 -86 189c0 175 145 323 330 323c14 0 28 -1 41 -3l23 40h57l-29 -52c14 -5 28 -11 41 -18l39 70h58l-56 -99c29 -25 50 -57 63 -92l-119 -43l-9 18l-157 -279h4c54 0 100 27 133 71l99 -60
c-49 -70 -132 -127 -239 -127c-21 0 -41 2 -60 5l-25 -46h-57zM168 249c0 -29 7 -55 19 -76l152 272c-92 -10 -171 -94 -171 -196zM222 133c12 -9 25 -16 40 -21l173 310c-12 8 -26 14 -41 18z" />
    <glyph glyph-name="Euro.onum" unicode="&#xf64e;" horiz-adv-x="611" 
d="M410 296h-212c-3 -14 -5 -29 -5 -43h208l-15 -67h-181c23 -52 74 -82 138 -82c54 0 100 27 133 71l99 -60c-49 -70 -132 -127 -239 -127c-148 0 -251 80 -274 198h-54l15 67h34c1 14 2 29 5 43h-30l16 68h34c50 115 166 198 305 198c119 0 206 -65 237 -154l-119 -43
c-19 48 -67 81 -123 81c-61 0 -118 -33 -153 -82h197z" />
    <glyph glyph-name="florin.onum" unicode="&#xf64f;" 
d="M104 -119h-144l71 322h-42v90h62l23 102c24 108 84 166 175 166c38 0 77 -11 105 -39l-46 -101c-7 10 -19 15 -35 15c-33 0 -51 -28 -59 -63l-18 -80h84v-90h-103z" />
    <glyph glyph-name="numbersign.onum" unicode="&#xf650;" horiz-adv-x="517" 
d="M534 402l-35 -68h-80l-63 -114h80l-37 -70h-82l-83 -150h-85l83 150h-76l-82 -150h-86l83 150h-75l36 70h79l63 114h-79l36 68h81l83 148h85l-83 -148h75l84 148h85l-84 -148h77zM333 334h-74l-64 -114h76z" />
    <glyph glyph-name="sterling.onum" unicode="&#xf651;" horiz-adv-x="450" 
d="M11 224l15 69h52c-9 24 -16 49 -16 79c0 110 107 189 214 189c92 0 171 -40 195 -111l-108 -42c-11 42 -46 59 -79 59c-51 0 -92 -42 -92 -106c0 -27 7 -48 15 -68h125l-15 -69h-93c0 -39 -38 -95 -62 -111c6 2 12 3 19 3c49 0 76 -23 116 -23c29 0 48 12 65 29l29 -92
c-24 -25 -49 -40 -104 -40c-76 0 -118 32 -181 32c-25 0 -54 -9 -87 -29l-24 80c61 24 110 69 110 125c0 9 -1 17 -3 26h-91z" />
    <glyph glyph-name="yen.onum" unicode="&#xf652;" horiz-adv-x="565" 
d="M295 0h-131l24 108h-193l15 67h193l11 50h-193l15 68h146l-120 257h147l94 -212l183 212h151l-233 -257h145l-16 -68h-189l-11 -50h189l-15 -67h-189z" />
    <glyph glyph-name="cent.onum" unicode="&#xf654;" horiz-adv-x="585" 
d="M209 -83l18 81c-121 28 -195 121 -195 241c0 172 140 317 320 322l14 62h90l-16 -72c78 -21 135 -75 159 -143l-119 -43c-12 30 -36 54 -66 68l-73 -328c44 7 82 32 110 70l99 -60c-49 -69 -130 -125 -235 -127l-16 -71h-90zM168 249c0 -65 33 -113 85 -134l73 328
c-87 -16 -158 -97 -158 -194z" />
    <glyph glyph-name="zero.dnom" unicode="&#xf655;" 
d="M367 247c0 -94 -56 -254 -202 -254c-101 0 -156 69 -156 160c0 93 56 253 203 253c101 0 155 -68 155 -159zM271 250c0 54 -21 79 -62 79c-75 0 -104 -120 -104 -180c0 -54 22 -79 63 -79c75 0 103 120 103 180z" />
    <glyph glyph-name="one.dnom" unicode="&#xf656;" horiz-adv-x="286" 
d="M172 0h-97l60 273l-80 -66l-44 59l166 134h83z" />
    <glyph glyph-name="two.dnom" unicode="&#xf657;" 
d="M307 0h-315l17 74c199 115 259 157 259 207c0 32 -29 48 -67 48c-45 0 -87 -19 -112 -43l-40 64c40 36 101 56 155 56c91 0 163 -42 163 -116c0 -75 -80 -137 -217 -213h173z" />
    <glyph glyph-name="three.dnom" unicode="&#xf658;" 
d="M335 112c0 -58 -57 -119 -158 -119c-80 0 -148 28 -179 73l60 59c27 -38 72 -55 115 -55c45 0 66 25 66 53s-34 43 -89 43c-10 0 -27 0 -33 -1l16 76c12 -1 49 -2 65 -2c47 0 72 18 72 47s-38 43 -79 43c-38 0 -73 -10 -104 -36l-33 60c37 32 92 53 146 53
c99 0 168 -38 168 -106c0 -51 -39 -96 -111 -101c43 -10 78 -39 78 -87z" />
    <glyph glyph-name="four.dnom" unicode="&#xf659;" 
d="M338 86h-53l-18 -86h-96l19 86h-197l15 65l213 249h134l-53 -239h52zM207 161l34 154l-135 -154h101z" />
    <glyph glyph-name="five.dnom" unicode="&#xf65a;" 
d="M341 150c0 -86 -65 -157 -170 -157c-72 0 -142 24 -174 72l64 57c22 -33 60 -52 106 -52c49 0 76 30 76 65c0 36 -29 54 -71 54c-30 0 -57 -11 -79 -32l-62 21l49 222h290l-17 -77h-193l-20 -93c23 19 49 29 80 29c67 0 121 -43 121 -109z" />
    <glyph glyph-name="six.dnom" unicode="&#xf65b;" 
d="M346 147c0 -82 -63 -154 -169 -154s-166 60 -166 155c0 141 98 258 221 258c48 0 102 -14 138 -47l-53 -64c-19 21 -47 34 -88 34c-76 0 -118 -80 -118 -113v-4c24 27 62 53 105 53c70 0 130 -44 130 -118zM248 135c0 36 -31 55 -73 55c-27 0 -50 -13 -69 -35
c-2 -5 -2 -13 -2 -18c0 -40 27 -67 72 -67c43 0 72 31 72 65z" />
    <glyph glyph-name="seven.dnom" unicode="&#xf65c;" horiz-adv-x="371" 
d="M360 334l-221 -334h-107l221 323h-210l17 77h315z" />
    <glyph glyph-name="eight.dnom" unicode="&#xf65d;" 
d="M338 105c0 -62 -54 -112 -161 -112c-89 0 -181 32 -181 109c0 54 48 103 119 112c-36 13 -68 39 -68 83c0 75 77 109 155 109s172 -31 172 -105c0 -49 -37 -94 -110 -104c37 -13 74 -47 74 -92zM275 287c0 29 -31 46 -70 46c-37 0 -66 -18 -66 -48c0 -32 42 -47 58 -50
c34 3 78 16 78 52zM244 116c0 27 -34 49 -62 56c-46 -3 -89 -24 -89 -57c0 -30 39 -49 76 -49c47 0 75 21 75 50z" />
    <glyph glyph-name="nine.dnom" unicode="&#xf65e;" 
d="M33 253c0 82 63 154 169 154s166 -60 166 -155c0 -141 -98 -258 -221 -258c-48 0 -102 14 -139 47l54 64c19 -21 47 -34 88 -34c76 0 118 80 118 114v3c-24 -27 -63 -53 -105 -53c-70 0 -130 44 -130 118zM131 265c0 -36 31 -55 73 -55c27 0 49 13 69 35c2 5 2 13 2 18
c0 40 -27 67 -72 67c-43 0 -72 -31 -72 -65z" />
    <glyph glyph-name="zero.numr" unicode="&#xf661;" 
d="M426 514c0 -94 -56 -254 -202 -254c-101 0 -156 69 -156 160c0 93 56 253 203 253c101 0 155 -68 155 -159zM330 517c0 54 -21 79 -62 79c-75 0 -104 -120 -104 -180c0 -54 22 -79 63 -79c75 0 103 120 103 180z" />
    <glyph glyph-name="one.numr" unicode="&#xf662;" horiz-adv-x="286" 
d="M231 267h-97l60 273l-80 -66l-44 59l166 134h83z" />
    <glyph glyph-name="two.numr" unicode="&#xf663;" 
d="M366 267h-315l17 74c199 115 259 157 259 207c0 32 -29 48 -67 48c-45 0 -87 -19 -112 -43l-40 64c40 36 101 56 155 56c91 0 163 -42 163 -116c0 -75 -80 -137 -217 -213h173z" />
    <glyph glyph-name="three.numr" unicode="&#xf664;" 
d="M394 379c0 -58 -57 -119 -158 -119c-80 0 -148 28 -179 73l60 59c27 -38 72 -55 115 -55c45 0 66 25 66 53s-34 43 -89 43c-10 0 -27 0 -33 -1l16 76c12 -1 49 -2 65 -2c47 0 72 18 72 47s-38 43 -79 43c-38 0 -73 -10 -104 -36l-33 60c37 32 92 53 146 53
c99 0 168 -38 168 -106c0 -51 -39 -96 -111 -101c43 -10 78 -39 78 -87z" />
    <glyph glyph-name="four.numr" unicode="&#xf665;" 
d="M397 353h-53l-18 -86h-96l19 86h-197l15 65l213 249h134l-53 -239h52zM266 428l34 154l-135 -154h101z" />
    <glyph glyph-name="five.numr" unicode="&#xf666;" 
d="M400 417c0 -86 -65 -157 -170 -157c-72 0 -142 24 -174 72l64 57c22 -33 60 -52 106 -52c49 0 76 30 76 65c0 36 -29 54 -71 54c-30 0 -57 -11 -79 -32l-62 21l49 222h290l-17 -77h-193l-20 -93c23 19 49 29 80 29c67 0 121 -43 121 -109z" />
    <glyph glyph-name="six.numr" unicode="&#xf667;" 
d="M405 414c0 -82 -63 -154 -169 -154s-166 60 -166 155c0 141 98 258 221 258c48 0 102 -14 138 -47l-53 -64c-19 21 -47 34 -88 34c-76 0 -118 -80 -118 -113v-4c24 27 62 53 105 53c70 0 130 -44 130 -118zM307 402c0 36 -31 55 -73 55c-27 0 -50 -13 -69 -35
c-2 -5 -2 -13 -2 -18c0 -40 27 -67 72 -67c43 0 72 31 72 65z" />
    <glyph glyph-name="seven.numr" unicode="&#xf668;" horiz-adv-x="371" 
d="M419 601l-221 -334h-107l221 323h-210l17 77h315z" />
    <glyph glyph-name="eight.numr" unicode="&#xf669;" 
d="M397 372c0 -62 -54 -112 -161 -112c-89 0 -181 32 -181 109c0 54 48 103 119 112c-36 13 -68 39 -68 83c0 75 77 109 155 109s172 -31 172 -105c0 -49 -37 -94 -110 -104c37 -13 74 -47 74 -92zM334 554c0 29 -31 46 -70 46c-37 0 -66 -18 -66 -48c0 -32 42 -47 58 -50
c34 3 78 16 78 52zM303 383c0 27 -34 49 -62 56c-46 -3 -89 -24 -89 -57c0 -30 39 -49 76 -49c47 0 75 21 75 50z" />
    <glyph glyph-name="nine.numr" unicode="&#xf66a;" 
d="M92 520c0 82 63 154 169 154s166 -60 166 -155c0 -141 -98 -258 -221 -258c-48 0 -102 14 -139 47l54 64c19 -21 47 -34 88 -34c76 0 118 80 118 114v3c-24 -27 -63 -53 -105 -53c-70 0 -130 44 -130 118zM190 532c0 -36 31 -55 73 -55c27 0 49 13 69 35c2 5 2 13 2 18
c0 40 -27 67 -72 67c-43 0 -72 -31 -72 -65z" />
    <glyph glyph-name="Abreve.smcp" unicode="&#xf66d;" horiz-adv-x="597" 
d="M285 550h161l102 -550h-146l-16 91h-240l-54 -91h-151zM373 206l-35 210l-128 -210h163zM572 684c-52 -54 -122 -88 -194 -88c-71 0 -128 34 -157 88l64 47c19 -37 55 -62 106 -62c50 0 96 23 133 62z" />
    <glyph glyph-name="Amacron.smcp" unicode="&#xf66e;" horiz-adv-x="597" 
d="M285 550h161l102 -550h-146l-16 91h-240l-54 -91h-151zM373 206l-35 210l-128 -210h163zM564 625h-362l16 73h362z" />
    <glyph glyph-name="Aogonek.smcp" unicode="&#xf66f;" horiz-adv-x="597" 
d="M285 550h161l102 -550c-60 -26 -94 -60 -94 -99c0 -22 14 -33 35 -33c20 0 35 13 47 33l43 -36c-23 -30 -52 -51 -94 -51c-50 0 -94 25 -94 76c0 41 21 80 60 110h-49l-16 91h-240l-54 -91h-151zM373 206l-35 210l-128 -210h163z" />
    <glyph glyph-name="AEacute.smcp" unicode="&#xf670;" horiz-adv-x="845" 
d="M726 750l-194 -144h-91l166 144h119zM749 0h-415l20 91h-189l-74 -91h-151l463 550h467l-25 -115h-283l-22 -98h277l-26 -115h-276l-23 -107h283zM379 206l47 210l-173 -210h126z" />
    <glyph glyph-name="Cacute.smcp" unicode="&#xf671;" horiz-adv-x="585" 
d="M311 -12c-169 0 -279 105 -279 251c0 175 145 323 330 323c119 0 206 -65 237 -154l-119 -43c-19 48 -67 81 -123 81c-100 0 -189 -88 -189 -197c0 -89 63 -145 150 -145c54 0 100 27 133 71l99 -60c-49 -70 -132 -127 -239 -127zM615 750l-194 -144h-91l166 144h119z
" />
    <glyph glyph-name="Ccaron.smcp" unicode="&#xf672;" horiz-adv-x="585" 
d="M311 -12c-169 0 -279 105 -279 251c0 175 145 323 330 323c119 0 206 -65 237 -154l-119 -43c-19 48 -67 81 -123 81c-100 0 -189 -88 -189 -197c0 -89 63 -145 150 -145c54 0 100 27 133 71l99 -60c-49 -70 -132 -127 -239 -127zM473 606h-114l-63 144h76l54 -89l90 89
h80z" />
    <glyph glyph-name="Ccircumflex.smcp" unicode="&#xf673;" horiz-adv-x="585" 
d="M311 -12c-169 0 -279 105 -279 251c0 175 145 323 330 323c119 0 206 -65 237 -154l-119 -43c-19 48 -67 81 -123 81c-100 0 -189 -88 -189 -197c0 -89 63 -145 150 -145c54 0 100 27 133 71l99 -60c-49 -70 -132 -127 -239 -127zM564 606h-76l-54 89l-90 -89h-80
l124 144h114z" />
    <glyph glyph-name="Cdotaccent.smcp" unicode="&#xf674;" horiz-adv-x="585" 
d="M311 -12c-169 0 -279 105 -279 251c0 175 145 323 330 323c119 0 206 -65 237 -154l-119 -43c-19 48 -67 81 -123 81c-100 0 -189 -88 -189 -197c0 -89 63 -145 150 -145c54 0 100 27 133 71l99 -60c-49 -70 -132 -127 -239 -127zM498 689c0 -40 -37 -75 -77 -75
c-34 0 -60 26 -60 60c0 40 37 76 77 76c34 0 60 -26 60 -61z" />
    <glyph glyph-name="Dcaron.smcp" unicode="&#xf675;" horiz-adv-x="626" 
d="M245 0h-245l121 550h200c154 0 278 -89 278 -235c0 -139 -91 -315 -354 -315zM270 115c134 0 193 102 193 190c0 79 -59 130 -157 130h-78l-70 -320h112zM447 606h-114l-63 144h76l54 -89l90 89h80z" />
    <glyph glyph-name="Dcroat.smcp" unicode="&#xf676;" horiz-adv-x="635" 
d="M254 0h-245l51 232h-55l21 91h54l50 227h200c154 0 278 -89 278 -235c0 -139 -91 -315 -354 -315zM279 115c134 0 193 102 193 190c0 79 -59 130 -157 130h-78l-25 -112h112l-20 -91h-112l-25 -117h112z" />
    <glyph glyph-name="Ebreve.smcp" unicode="&#xf677;" horiz-adv-x="520" 
d="M424 0h-415l121 550h415l-26 -115h-281l-23 -98h277l-25 -115h-277l-24 -107h283zM543 684c-52 -54 -122 -88 -194 -88c-71 0 -128 34 -157 88l64 47c19 -37 55 -62 106 -62c50 0 96 23 133 62z" />
    <glyph glyph-name="Ecaron.smcp" unicode="&#xf678;" horiz-adv-x="520" 
d="M424 0h-415l121 550h415l-26 -115h-281l-23 -98h277l-25 -115h-277l-24 -107h283zM410 606h-114l-63 144h76l54 -89l90 89h80z" />
    <glyph glyph-name="Edotaccent.smcp" unicode="&#xf679;" horiz-adv-x="520" 
d="M424 0h-415l121 550h415l-26 -115h-281l-23 -98h277l-25 -115h-277l-24 -107h283zM440 689c0 -40 -37 -75 -77 -75c-34 0 -60 26 -60 60c0 40 37 76 77 76c34 0 60 -26 60 -61z" />
    <glyph glyph-name="Emacron.smcp" unicode="&#xf67a;" horiz-adv-x="520" 
d="M424 0h-415l121 550h415l-26 -115h-281l-23 -98h277l-25 -115h-277l-24 -107h283zM535 625h-362l16 73h362z" />
    <glyph glyph-name="Eng.smcp" unicode="&#xf67b;" horiz-adv-x="649" 
d="M313 -196c-70 0 -136 21 -175 70l76 94c17 -28 48 -47 87 -47c54 0 85 32 97 79h-1l-177 359l-79 -359h-132l121 550h142l172 -347l77 347h132l-123 -555c-28 -128 -92 -191 -217 -191z" />
    <glyph glyph-name="Eogonek.smcp" unicode="&#xf67c;" horiz-adv-x="520" 
d="M412 -99l43 -36c-23 -30 -52 -51 -94 -51c-50 0 -94 25 -94 76c0 41 21 80 60 110h-318l121 550h415l-26 -115h-281l-23 -98h277l-25 -115h-277l-24 -107h283l-25 -115c-60 -26 -94 -60 -94 -99c0 -22 14 -33 35 -33c20 0 35 13 47 33z" />
    <glyph glyph-name="Gbreve.smcp" unicode="&#xf67d;" horiz-adv-x="616" 
d="M316 -12c-158 0 -284 95 -284 248c0 171 138 326 332 326c107 0 196 -56 232 -132l-118 -52c-19 36 -66 67 -124 67c-109 0 -185 -93 -185 -197c0 -87 67 -144 153 -144c46 0 75 13 93 24l17 74h-131l23 108h263l-54 -247c-57 -43 -128 -75 -217 -75zM608 684
c-52 -54 -122 -88 -194 -88c-71 0 -128 34 -157 88l64 47c19 -37 55 -62 106 -62c50 0 96 23 133 62z" />
    <glyph glyph-name="Gcircumflex.smcp" unicode="&#xf67e;" horiz-adv-x="616" 
d="M316 -12c-158 0 -284 95 -284 248c0 171 138 326 332 326c107 0 196 -56 232 -132l-118 -52c-19 36 -66 67 -124 67c-109 0 -185 -93 -185 -197c0 -87 67 -144 153 -144c46 0 75 13 93 24l17 74h-131l23 108h263l-54 -247c-57 -43 -128 -75 -217 -75zM564 606h-76l-54 89
l-90 -89h-80l124 144h114z" />
    <glyph glyph-name="Gcommaaccent.smcp" unicode="&#xf67f;" horiz-adv-x="616" 
d="M316 -12c-158 0 -284 95 -284 248c0 171 138 326 332 326c107 0 196 -56 232 -132l-118 -52c-19 36 -66 67 -124 67c-109 0 -185 -93 -185 -197c0 -87 67 -144 153 -144c46 0 75 13 93 24l17 74h-131l23 108h263l-54 -247c-57 -43 -128 -75 -217 -75zM322 -121
c0 -61 -52 -128 -118 -161l-35 37c30 14 67 42 80 70h-9c-26 0 -48 18 -48 51c0 37 34 68 69 68c32 0 61 -22 61 -65z" />
    <glyph glyph-name="Gdotaccent.smcp" unicode="&#xf680;" horiz-adv-x="616" 
d="M316 -12c-158 0 -284 95 -284 248c0 171 138 326 332 326c107 0 196 -56 232 -132l-118 -52c-19 36 -66 67 -124 67c-109 0 -185 -93 -185 -197c0 -87 67 -144 153 -144c46 0 75 13 93 24l17 74h-131l23 108h263l-54 -247c-57 -43 -128 -75 -217 -75zM497 689
c0 -40 -37 -75 -77 -75c-34 0 -60 26 -60 60c0 40 37 76 77 76c34 0 60 -26 60 -61z" />
    <glyph glyph-name="Hcircumflex.smcp" unicode="&#xf681;" horiz-adv-x="651" 
d="M534 0h-132l50 224h-261l-50 -224h-132l121 550h132l-46 -211h261l46 211h132zM554 606h-76l-54 89l-90 -89h-80l124 144h114z" />
    <glyph glyph-name="Hbar.smcp" unicode="&#xf682;" horiz-adv-x="666" 
d="M543 0h-132l50 224h-261l-50 -224h-132l90 411h-62l16 73h62l15 66h132l-15 -66h261l15 66h132l-15 -66h59l-15 -73h-60zM225 339h261l15 72h-261z" />
    <glyph glyph-name="Ibreve.smcp" unicode="&#xf683;" horiz-adv-x="253" 
d="M139 0h-132l121 550h132zM399 684c-52 -54 -122 -88 -194 -88c-71 0 -128 34 -157 88l64 47c19 -37 55 -62 106 -62c50 0 96 23 133 62z" />
    <glyph glyph-name="IJ.smcp" unicode="&#xf684;" horiz-adv-x="691" 
d="M141 0h-132l121 550h132zM396 -12c-75 0 -138 24 -174 70l75 93c18 -28 49 -47 87 -47c57 0 88 34 100 87l78 359h133l-81 -370c-31 -138 -101 -192 -218 -192z" />
    <glyph glyph-name="Imacron.smcp" unicode="&#xf685;" horiz-adv-x="253" 
d="M139 0h-132l121 550h132zM393 625h-362l16 73h362z" />
    <glyph glyph-name="Iogonek.smcp" unicode="&#xf686;" horiz-adv-x="253" 
d="M128 -99l43 -36c-23 -30 -52 -51 -94 -51c-50 0 -94 25 -94 76c0 41 21 80 60 110h-35l121 550h132l-121 -550c-60 -26 -94 -60 -94 -99c0 -22 14 -33 35 -33c20 0 35 13 47 33z" />
    <glyph glyph-name="Itilde.smcp" unicode="&#xf687;" horiz-adv-x="253" 
d="M140 0h-132l121 550h132zM276 588c-70 0 -74 68 -120 68c-20 0 -36 -19 -45 -62h-68c17 85 51 134 121 134s75 -67 121 -67c20 0 35 19 45 61h68c-18 -85 -52 -134 -122 -134z" />
    <glyph glyph-name="Jcircumflex.smcp" unicode="&#xf688;" horiz-adv-x="433" 
d="M138 -12c-75 0 -138 24 -174 70l75 93c18 -28 49 -47 87 -47c57 0 88 34 100 87l78 359h133l-81 -370c-31 -138 -101 -192 -218 -192zM534 606h-76l-54 89l-90 -89h-80l124 144h114z" />
    <glyph glyph-name="Kcommaaccent.smcp" unicode="&#xf689;" horiz-adv-x="566" 
d="M511 0h-158l-124 216l-50 -47l-38 -169h-132l121 550h132l-50 -230l243 230h162l-286 -258zM271 -121c0 -61 -52 -128 -118 -161l-35 37c30 14 67 42 80 70h-9c-26 0 -48 18 -48 51c0 37 34 68 69 68c32 0 61 -22 61 -65z" />
    <glyph glyph-name="Lacute.smcp" unicode="&#xf68a;" horiz-adv-x="469" 
d="M383 0h-374l121 550h132l-96 -435h242zM534 750l-194 -144h-91l166 144h119z" />
    <glyph glyph-name="Lcaron.smcp" unicode="&#xf68b;" horiz-adv-x="469" 
d="M383 0h-374l121 550h132l-96 -435h242zM442 495c0 -61 -52 -128 -118 -161l-35 37c30 14 67 42 80 70h-9c-26 0 -48 18 -48 51c0 37 34 68 69 68c32 0 61 -22 61 -65z" />
    <glyph glyph-name="Lcommaaccent.smcp" unicode="&#xf68c;" horiz-adv-x="469" 
d="M383 0h-374l121 550h132l-96 -435h242zM235 -121c0 -61 -52 -128 -118 -161l-35 37c30 14 67 42 80 70h-9c-26 0 -48 18 -48 51c0 37 34 68 69 68c32 0 61 -22 61 -65z" />
    <glyph glyph-name="Ldot.smcp" unicode="&#xf68d;" horiz-adv-x="499" 
d="M383 0h-374l121 550h132l-96 -435h242zM388 224c-42 0 -74 34 -74 75c0 48 41 87 89 87c41 0 73 -33 73 -74c0 -48 -41 -88 -88 -88z" />
    <glyph glyph-name="Nacute.smcp" unicode="&#xf68e;" horiz-adv-x="649" 
d="M532 0h-135l-177 359l-79 -359h-132l121 550h142l172 -347l77 347h132zM604 750l-194 -144h-91l166 144h119z" />
    <glyph glyph-name="Ncaron.smcp" unicode="&#xf68f;" horiz-adv-x="649" 
d="M532 0h-135l-177 359l-79 -359h-132l121 550h142l172 -347l77 347h132zM462 606h-114l-63 144h76l54 -89l90 89h80z" />
    <glyph glyph-name="Ncommaaccent.smcp" unicode="&#xf690;" horiz-adv-x="649" 
d="M532 0h-135l-177 359l-79 -359h-132l121 550h142l172 -347l77 347h132zM311 -121c0 -61 -52 -128 -118 -161l-35 37c30 14 67 42 80 70h-9c-26 0 -48 18 -48 51c0 37 34 68 69 68c32 0 61 -22 61 -65z" />
    <glyph glyph-name="Obreve.smcp" unicode="&#xf691;" horiz-adv-x="655" 
d="M311 -12c-167 0 -279 104 -279 253c0 172 139 321 324 321c167 0 279 -104 279 -253c0 -171 -139 -321 -324 -321zM314 104c110 0 185 96 185 196c0 81 -55 146 -147 146c-110 0 -184 -96 -184 -196c0 -81 54 -146 146 -146zM601 684c-52 -54 -122 -88 -194 -88
c-71 0 -128 34 -157 88l64 47c19 -37 55 -62 106 -62c50 0 96 23 133 62z" />
    <glyph glyph-name="Ohungarumlaut.smcp" unicode="&#xf692;" horiz-adv-x="655" 
d="M311 -12c-167 0 -279 104 -279 253c0 172 139 321 324 321c167 0 279 -104 279 -253c0 -171 -139 -321 -324 -321zM314 104c110 0 185 96 185 196c0 81 -55 146 -147 146c-110 0 -184 -96 -184 -196c0 -81 54 -146 146 -146zM508 750l-147 -144h-76l119 144h104zM657 750
l-147 -144h-76l119 144h104z" />
    <glyph glyph-name="Omacron.smcp" unicode="&#xf693;" horiz-adv-x="655" 
d="M311 -12c-167 0 -279 104 -279 253c0 172 139 321 324 321c167 0 279 -104 279 -253c0 -171 -139 -321 -324 -321zM314 104c110 0 185 96 185 196c0 81 -55 146 -147 146c-110 0 -184 -96 -184 -196c0 -81 54 -146 146 -146zM594 628h-362l16 73h362z" />
    <glyph glyph-name="Oslashacute.smcp" unicode="&#xf694;" horiz-adv-x="655" 
d="M311 -12c-67 0 -125 16 -171 46l-34 -34h-102l82 82c-35 42 -54 96 -54 159c0 172 139 321 324 321c66 0 123 -16 169 -45l33 33h102l-81 -81c36 -42 56 -97 56 -160c0 -171 -139 -321 -324 -321zM314 104c110 0 185 96 185 196c0 26 -6 51 -18 73l-249 -248
c22 -13 50 -21 82 -21zM168 250c0 -26 5 -50 16 -71l248 246c-22 13 -49 21 -80 21c-110 0 -184 -96 -184 -196zM611 750l-194 -144h-91l166 144h119z" />
    <glyph glyph-name="Racute.smcp" unicode="&#xf695;" horiz-adv-x="574" 
d="M485 0h-149l-68 189h-85l-42 -189h-132l121 550h245c122 0 192 -66 192 -156c0 -98 -65 -180 -168 -196zM338 304h7c53 0 84 35 84 77c0 32 -24 54 -65 54h-126l-30 -131h130zM560 750l-194 -144h-91l166 144h119z" />
    <glyph glyph-name="Rcaron.smcp" unicode="&#xf696;" horiz-adv-x="574" 
d="M485 0h-149l-68 189h-85l-42 -189h-132l121 550h245c122 0 192 -66 192 -156c0 -98 -65 -180 -168 -196zM338 304h7c53 0 84 35 84 77c0 32 -24 54 -65 54h-126l-30 -131h130zM418 606h-114l-63 144h76l54 -89l90 89h80z" />
    <glyph glyph-name="Rcommaaccent.smcp" unicode="&#xf697;" horiz-adv-x="574" 
d="M485 0h-149l-68 189h-85l-42 -189h-132l121 550h245c122 0 192 -66 192 -156c0 -98 -65 -180 -168 -196zM338 304h7c53 0 84 35 84 77c0 32 -24 54 -65 54h-126l-30 -131h130zM267 -121c0 -61 -52 -128 -118 -161l-35 37c30 14 67 42 80 70h-9c-26 0 -48 18 -48 51
c0 37 34 68 69 68c32 0 61 -22 61 -65z" />
    <glyph glyph-name="Sacute.smcp" unicode="&#xf698;" horiz-adv-x="516" 
d="M250 -12c-110 0 -207 33 -263 96l81 99c38 -47 110 -79 190 -79c62 0 81 29 81 58c0 74 -275 54 -275 225c0 86 90 175 224 175c99 0 188 -40 236 -93l-81 -93c-34 39 -105 70 -162 70c-48 0 -78 -24 -78 -53c0 -73 275 -49 275 -225c0 -89 -74 -180 -228 -180zM540 750
l-194 -144h-91l166 144h119z" />
    <glyph glyph-name="Scedilla.smcp" unicode="&#xf699;" horiz-adv-x="516" 
d="M174 -195c-53 0 -96 18 -119 41l35 47c24 -22 54 -35 85 -35c30 0 49 14 49 35c0 14 -10 24 -29 24c-12 0 -22 -5 -30 -14l-40 26l39 67c-74 12 -136 42 -177 88l81 99c38 -47 110 -79 190 -79c62 0 81 29 81 58c0 74 -275 54 -275 225c0 86 90 175 224 175
c99 0 188 -40 236 -93l-81 -93c-34 39 -105 70 -162 70c-48 0 -78 -24 -78 -53c0 -73 275 -49 275 -225c0 -89 -74 -180 -228 -180c-10 0 -19 0 -28 1l-25 -40c10 8 19 10 31 10c33 0 59 -23 59 -62c0 -56 -49 -92 -113 -92z" />
    <glyph glyph-name="Scircumflex.smcp" unicode="&#xf69a;" horiz-adv-x="516" 
d="M250 -12c-110 0 -207 33 -263 96l81 99c38 -47 110 -79 190 -79c62 0 81 29 81 58c0 74 -275 54 -275 225c0 86 90 175 224 175c99 0 188 -40 236 -93l-81 -93c-34 39 -105 70 -162 70c-48 0 -78 -24 -78 -53c0 -73 275 -49 275 -225c0 -89 -74 -180 -228 -180zM491 606
h-76l-54 89l-90 -89h-80l124 144h114z" />
    <glyph glyph-name="Scommaaccent.smcp" unicode="&#xf69b;" horiz-adv-x="516" 
d="M250 -12c-110 0 -207 33 -263 96l81 99c38 -47 110 -79 190 -79c62 0 81 29 81 58c0 74 -275 54 -275 225c0 86 90 175 224 175c99 0 188 -40 236 -93l-81 -93c-34 39 -105 70 -162 70c-48 0 -78 -24 -78 -53c0 -73 275 -49 275 -225c0 -89 -74 -180 -228 -180zM246 -121
c0 -61 -52 -128 -118 -161l-35 37c30 14 67 42 80 70h-9c-26 0 -48 18 -48 51c0 37 34 68 69 68c32 0 61 -22 61 -65z" />
    <glyph glyph-name="Tbar.smcp" unicode="&#xf69c;" horiz-adv-x="486" 
d="M255 0h-132l45 206h-102l17 73h101l35 156h-157l26 115h445l-26 -115h-156l-35 -156h104l-17 -73h-103z" />
    <glyph glyph-name="Tcaron.smcp" unicode="&#xf69d;" horiz-adv-x="486" 
d="M255 0h-132l96 435h-157l26 115h445l-26 -115h-156zM383 606h-114l-63 144h76l54 -89l90 89h80z" />
    <glyph glyph-name="Tcommaaccent.smcp" unicode="&#xf69e;" horiz-adv-x="486" 
d="M255 0h-132l96 435h-157l26 115h445l-26 -115h-156zM229 -121c0 -61 -52 -128 -118 -161l-35 37c30 14 67 42 80 70h-9c-26 0 -48 18 -48 51c0 37 34 68 69 68c32 0 61 -22 61 -65z" />
    <glyph glyph-name="Ubreve.smcp" unicode="&#xf69f;" horiz-adv-x="646" 
d="M314 -12c-173 0 -263 80 -263 187c0 13 2 29 5 43l74 332h133l-71 -320c-1 -10 -3 -20 -3 -28c0 -63 49 -98 122 -98c75 0 118 47 135 126l71 320h133l-73 -331c-32 -146 -104 -231 -263 -231zM595 684c-52 -54 -122 -88 -194 -88c-71 0 -128 34 -157 88l64 47
c19 -37 55 -62 106 -62c50 0 96 23 133 62z" />
    <glyph glyph-name="Uhungarumlaut.smcp" unicode="&#xf6a0;" horiz-adv-x="646" 
d="M314 -12c-173 0 -263 80 -263 187c0 13 2 29 5 43l74 332h133l-71 -320c-1 -10 -3 -20 -3 -28c0 -63 49 -98 122 -98c75 0 118 47 135 126l71 320h133l-73 -331c-32 -146 -104 -231 -263 -231zM502 750l-147 -144h-76l119 144h104zM651 750l-147 -144h-76l119 144h104z
" />
    <glyph glyph-name="Umacron.smcp" unicode="&#xf6a1;" horiz-adv-x="646" 
d="M314 -12c-173 0 -263 80 -263 187c0 13 2 29 5 43l74 332h133l-71 -320c-1 -10 -3 -20 -3 -28c0 -63 49 -98 122 -98c75 0 118 47 135 126l71 320h133l-73 -331c-32 -146 -104 -231 -263 -231zM590 625h-362l16 73h362z" />
    <glyph glyph-name="Uogonek.smcp" unicode="&#xf6a2;" horiz-adv-x="646" 
d="M394 -99l43 -36c-23 -30 -52 -51 -94 -51c-50 0 -94 25 -94 76c0 36 16 70 46 98c-161 6 -244 84 -244 187c0 13 2 29 5 43l74 332h133l-71 -320c-1 -10 -3 -20 -3 -28c0 -63 49 -98 122 -98c75 0 118 47 135 126l71 320h133l-73 -331c-25 -114 -75 -191 -171 -219
c-60 -26 -94 -60 -94 -99c0 -22 14 -33 35 -33c20 0 35 13 47 33z" />
    <glyph glyph-name="Uring.smcp" unicode="&#xf6a3;" horiz-adv-x="646" 
d="M314 -12c-173 0 -263 80 -263 187c0 13 2 29 5 43l74 332h133l-71 -320c-1 -10 -3 -20 -3 -28c0 -63 49 -98 122 -98c75 0 118 47 135 126l71 320h133l-73 -331c-32 -146 -104 -231 -263 -231zM415 597c-57 0 -96 39 -96 96c0 62 53 115 115 115c57 0 96 -39 96 -96
c0 -62 -53 -115 -115 -115zM420 656c27 0 51 23 51 50c0 25 -17 43 -42 43c-27 0 -51 -23 -51 -50c0 -25 17 -43 42 -43z" />
    <glyph glyph-name="Utilde.smcp" unicode="&#xf6a4;" horiz-adv-x="646" 
d="M314 -12c-173 0 -263 80 -263 187c0 13 2 29 5 43l74 332h133l-71 -320c-1 -10 -3 -20 -3 -28c0 -63 49 -98 122 -98c75 0 118 47 135 126l71 320h133l-73 -331c-32 -146 -104 -231 -263 -231zM474 604c-70 0 -74 68 -120 68c-20 0 -36 -19 -45 -62h-68
c17 85 51 134 121 134s75 -67 121 -67c20 0 35 19 45 61h68c-18 -85 -52 -134 -122 -134z" />
    <glyph glyph-name="Wcircumflex.smcp" unicode="&#xf6a6;" horiz-adv-x="797" 
d="M629 606h-76l-54 89l-90 -89h-80l124 144h114zM579 0h-138l-18 358l-174 -358h-138l-45 550h147l12 -376l188 376h103l22 -377l179 377h148z" />
    <glyph glyph-name="Ycircumflex.smcp" unicode="&#xf6a9;" horiz-adv-x="565" 
d="M295 0h-131l50 226l-152 324h147l94 -212l183 212h151l-293 -324zM515 606h-76l-54 89l-90 -89h-80l124 144h114z" />
    <glyph glyph-name="Zacute.smcp" unicode="&#xf6ab;" horiz-adv-x="524" 
d="M434 0h-452l20 96l336 338h-261l26 116h445l-20 -96l-336 -338h267zM541 750l-194 -144h-91l166 144h119z" />
    <glyph glyph-name="Zdotaccent.smcp" unicode="&#xf6ac;" horiz-adv-x="524" 
d="M434 0h-452l20 96l336 338h-261l26 116h445l-20 -96l-336 -338h267zM436 689c0 -40 -37 -75 -77 -75c-34 0 -60 26 -60 60c0 40 37 76 77 76c34 0 60 -26 60 -61z" />
    <glyph glyph-name="Idotaccent.smcp" unicode="&#xf6ad;" horiz-adv-x="235" 
d="M132 0h-132l121 550h132zM284 689c0 -40 -37 -75 -77 -75c-34 0 -60 26 -60 60c0 40 37 76 77 76c34 0 60 -26 60 -61z" />
    <glyph glyph-name="parenleft.case" unicode="&#xf6ae;" horiz-adv-x="297" 
d="M215 -56l-92 -53c-52 79 -80 193 -80 306c0 209 105 426 274 578l66 -68c-128 -154 -206 -344 -206 -545c0 -73 17 -155 38 -218z" />
    <glyph glyph-name="parenright.case" unicode="&#xf6af;" horiz-adv-x="298" 
d="M121 722l92 53c52 -79 80 -193 80 -306c0 -209 -105 -426 -274 -578l-66 68c128 154 206 344 206 545c0 73 -17 155 -38 218z" />
    <glyph glyph-name="bracketleft.case" unicode="&#xf6b0;" horiz-adv-x="280" 
d="M186 -100h-216l193 868h216l-19 -85h-124l-155 -698h124z" />
    <glyph glyph-name="bracketright.case" unicode="&#xf6b1;" horiz-adv-x="280" 
d="M156 -100h-214l18 85h124l155 698h-124l19 85h215z" />
    <glyph glyph-name="braceleft.case" unicode="&#xf6b2;" horiz-adv-x="288" 
d="M194 -100h-45c-74 0 -139 52 -139 128c0 10 1 21 4 31l39 172c1 6 2 13 2 18c0 29 -15 49 -40 49l16 72c39 0 59 30 67 67l38 171c25 110 95 160 191 160h60l-18 -85h-61c-41 0 -69 -26 -80 -74l-43 -195c-10 -42 -29 -78 -65 -89c21 -12 29 -32 29 -56
c0 -10 -1 -22 -4 -34l-39 -175c-1 -6 -2 -13 -2 -19c0 -34 24 -56 56 -56h54z" />
    <glyph glyph-name="braceright.case" unicode="&#xf6b3;" horiz-adv-x="288" 
d="M133 768h45c74 0 139 -52 139 -128c0 -10 -1 -22 -4 -31l-38 -172c-1 -6 -2 -13 -2 -18c0 -29 15 -49 39 -49l-16 -72c-39 0 -59 -30 -67 -67l-38 -171c-25 -110 -95 -160 -190 -160h-61l19 85h60c42 0 69 26 80 74l44 195c9 42 29 78 65 90c-21 11 -29 31 -29 55
c0 10 1 22 4 34l38 175c1 6 2 13 2 19c0 34 -23 56 -55 56h-54z" />
    <glyph glyph-name="exclamdown.case" unicode="&#xf6b4;" horiz-adv-x="255" 
d="M116 449h112l-78 -449h-154zM212 679c41 0 73 -34 73 -75c0 -48 -41 -88 -89 -88c-41 0 -73 34 -73 75c0 48 41 88 89 88z" />
    <glyph glyph-name="questiondown.case" unicode="&#xf6b5;" horiz-adv-x="456" 
d="M209 427l117 31c11 -20 16 -42 16 -70c0 -146 -194 -144 -194 -225c0 -32 28 -53 82 -53c42 0 87 17 121 48l61 -98c-63 -53 -133 -75 -203 -75c-116 0 -212 55 -212 148c0 177 223 164 223 265c0 7 -2 19 -11 29zM315 674c41 0 73 -34 73 -75c0 -48 -40 -88 -88 -88
c-41 0 -74 34 -74 75c0 48 41 88 89 88z" />
    <glyph glyph-name="guillemotleft.case" unicode="&#xf6b6;" horiz-adv-x="527" 
d="M285 162h-114l-120 180l200 177h122l-204 -182zM474 162h-113l-120 180l200 177h121l-204 -182z" />
    <glyph glyph-name="guillemotright.case" unicode="&#xf6b7;" horiz-adv-x="527" 
d="M98 519h114l120 -180l-200 -177h-122l204 182zM288 519h113l120 -180l-200 -177h-121l204 182z" />
    <glyph glyph-name="guilsinglleft.case" unicode="&#xf6b8;" horiz-adv-x="338" 
d="M285 162h-114l-120 180l200 177h122l-204 -182z" />
    <glyph glyph-name="guilsinglright.case" unicode="&#xf6b9;" horiz-adv-x="338" 
d="M99 519h114l120 -180l-200 -177h-122l204 182z" />
    <glyph glyph-name="hyphen.case" unicode="&#xf6ba;" horiz-adv-x="300" 
d="M280 287h-240l23 108h240z" />
    <glyph glyph-name="endash.case" unicode="&#xf6bb;" horiz-adv-x="593" 
d="M573 287h-533l23 108h533z" />
    <glyph glyph-name="emdash.case" unicode="&#xf6bc;" horiz-adv-x="833" 
d="M813 287h-773l23 108h773z" />
    <glyph glyph-name="periodcentered.case" unicode="&#xf6bd;" horiz-adv-x="257" 
d="M142 262c-42 0 -74 34 -74 75c0 48 41 87 89 87c41 0 73 -33 73 -74c0 -48 -41 -88 -88 -88z" />
    <glyph glyph-name="bullet.case" unicode="&#xf6be;" horiz-adv-x="358" 
d="M321 353c0 -71 -62 -130 -133 -130c-61 0 -107 46 -107 107c0 71 62 130 133 130c61 0 107 -46 107 -107z" />
    <glyph glyph-name="cent.case" unicode="&#xf6bf;" horiz-adv-x="499" 
d="M184 -9l22 98c-98 26 -158 104 -158 210c0 155 116 280 268 287l16 70h92l-18 -80c56 -15 95 -46 119 -85l-95 -73c-12 19 -29 34 -50 44l-59 -268c31 6 58 23 78 46l69 -84c-35 -38 -93 -74 -173 -77l-19 -88h-92zM177 306c0 -47 22 -81 55 -99l58 261
c-69 -18 -113 -86 -113 -162z" />
    <glyph glyph-name="commaaccent" unicode="&#xf6c3;" horiz-adv-x="255" 
d="M113 -121c0 -61 -52 -128 -118 -161l-35 37c30 14 67 42 80 70h-9c-26 0 -48 18 -48 51c0 37 34 68 69 68c32 0 61 -22 61 -65z" />
    <glyph glyph-name="one.tnum" unicode="&#xf6dc;" horiz-adv-x="623" 
d="M397 0h-142l106 484l-135 -113l-63 85l257 211h124z" />
    <glyph glyph-name="Lslash.smcp" unicode="&#xf6f9;" horiz-adv-x="480" 
d="M-15 140l26 116l73 37l57 257h132l-40 -180l92 47l-26 -117l-92 -47l-30 -138h242l-25 -115h-374l39 178z" />
    <glyph glyph-name="OE.smcp" unicode="&#xf6fa;" horiz-adv-x="929" 
d="M833 0h-415l13 60c-34 -47 -95 -72 -156 -72c-144 0 -243 105 -243 253c0 170 136 321 325 321c68 0 135 -28 166 -86l16 74h415l-25 -115h-283l-21 -98h276l-25 -115h-277l-23 -107h283zM460 194l34 152c-19 69 -79 100 -140 100c-107 0 -186 -91 -186 -196
c0 -88 60 -146 146 -146c61 0 115 32 146 90z" />
    <glyph glyph-name="Scaron.smcp" unicode="&#xf6fd;" horiz-adv-x="516" 
d="M250 -12c-110 0 -207 33 -263 96l81 99c38 -47 110 -79 190 -79c62 0 81 29 81 58c0 74 -275 54 -275 225c0 86 90 175 224 175c99 0 188 -40 236 -93l-81 -93c-34 39 -105 70 -162 70c-48 0 -78 -24 -78 -53c0 -73 275 -49 275 -225c0 -89 -74 -180 -228 -180zM400 606
h-114l-63 144h76l54 -89l90 89h80z" />
    <glyph glyph-name="Zcaron.smcp" unicode="&#xf6ff;" horiz-adv-x="524" 
d="M434 0h-452l20 96l336 338h-261l26 116h445l-20 -96l-336 -338h267zM398 606h-114l-63 144h76l54 -89l90 89h80z" />
    <glyph glyph-name="exclam.smcp" unicode="&#xf721;" horiz-adv-x="204" 
d="M239 550l-94 -345h-102l57 345h139zM56 -12c-41 0 -74 34 -74 75c0 48 41 88 89 88c41 0 73 -34 73 -75c0 -48 -40 -88 -88 -88z" />
    <glyph glyph-name="dollar.onum" unicode="&#xf724;" horiz-adv-x="516" 
d="M146 -74l15 70c-72 13 -134 42 -174 88l81 99c26 -33 69 -58 119 -71l27 121c-73 26 -150 63 -150 154c0 86 90 175 223 175l15 66h91l-17 -77c62 -15 115 -46 148 -82l-81 -93c-21 24 -56 45 -93 57l-24 -109c73 -25 152 -62 152 -156c0 -89 -74 -179 -227 -180l-14 -62
h-91zM339 162c0 18 -16 30 -40 41l-22 -98c47 5 62 31 62 57zM203 393c0 -17 15 -29 38 -39l20 90c-37 -5 -58 -26 -58 -51z" />
    <glyph glyph-name="ampersand.smcp" unicode="&#xf726;" horiz-adv-x="567" 
d="M487 0h-138c-7 9 -15 18 -22 28c-45 -25 -93 -39 -142 -39c-107 0 -188 53 -188 151c0 109 77 153 162 182c-11 31 -16 60 -16 86c0 87 76 154 174 154c80 0 154 -43 154 -114c0 -99 -86 -132 -173 -160c9 -17 19 -35 31 -53c14 -24 27 -45 39 -64c33 34 61 74 81 113
l84 -48c-34 -52 -73 -100 -115 -140c20 -30 42 -60 69 -96zM205 77c23 0 48 7 72 20c-18 27 -34 53 -45 74c-16 27 -30 52 -42 77c-41 -20 -69 -48 -69 -94s32 -77 84 -77zM256 408c0 -16 4 -33 11 -53c57 18 102 39 102 84c0 27 -20 42 -47 42c-38 0 -66 -28 -66 -73z" />
    <glyph glyph-name="zero.onum" unicode="&#xf730;" horiz-adv-x="620" 
d="M598 320c0 -149 -104 -332 -301 -332c-167 0 -263 91 -263 242c0 149 104 332 301 332c167 0 263 -91 263 -242zM452 310c0 83 -43 126 -118 126c-103 0 -154 -113 -154 -196s43 -126 118 -126c103 0 154 113 154 196z" />
    <glyph glyph-name="one.onum" unicode="&#xf731;" horiz-adv-x="411" 
d="M291 0h-142l80 367l-135 -113l-63 85l257 211h124z" />
    <glyph glyph-name="two.onum" unicode="&#xf732;" horiz-adv-x="582" 
d="M466 0h-470l26 119c258 77 389 162 389 242c0 47 -45 75 -107 75c-66 0 -125 -23 -177 -65l-60 100c67 59 157 91 253 91c138 0 243 -60 243 -168c0 -129 -153 -221 -281 -269h211z" />
    <glyph glyph-name="three.onum" unicode="&#xf733;" horiz-adv-x="579" 
d="M245 -129c-122 0 -242 50 -292 139l95 86c42 -66 126 -99 196 -99c78 0 118 40 118 92c0 39 -30 70 -122 70c-28 0 -70 -1 -80 -2l28 128c11 -1 68 -1 94 -1c74 0 130 21 130 77c0 44 -49 73 -132 73c-57 0 -115 -17 -162 -54l-51 97c55 50 137 83 227 83
c159 0 264 -64 264 -174c0 -90 -93 -154 -180 -165c69 -17 125 -61 125 -146c0 -118 -115 -204 -258 -204z" />
    <glyph glyph-name="four.onum" unicode="&#xf734;" horiz-adv-x="597" 
d="M524 27h-86l-32 -144h-142l32 144h-319l24 113l356 410h196l-87 -398h85zM323 152l60 272l-240 -272h180z" />
    <glyph glyph-name="five.onum" unicode="&#xf735;" horiz-adv-x="608" 
d="M270 -129c-130 0 -223 47 -278 129l101 89c36 -58 99 -92 179 -92c78 0 126 49 126 109c0 57 -51 89 -126 89c-52 0 -85 -12 -122 -40l-92 37l79 358h458l-27 -125h-316l-35 -157c35 28 75 43 133 43c108 0 197 -67 197 -189c0 -136 -111 -251 -277 -251z" />
    <glyph glyph-name="six.onum" unicode="&#xf736;" horiz-adv-x="608" 
d="M301 -12c-164 0 -262 95 -262 258c0 216 128 431 359 431c98 0 172 -35 223 -90l-88 -101c-31 42 -85 65 -144 65c-98 0 -161 -82 -187 -164c-4 -9 -7 -19 -9 -26c36 37 103 70 173 70c119 0 212 -70 212 -184c0 -142 -125 -259 -277 -259zM301 114c73 0 128 52 128 115
c0 54 -57 88 -128 88c-47 0 -89 -20 -122 -50c-1 -8 -1 -25 -1 -35c0 -72 52 -118 123 -118z" />
    <glyph glyph-name="seven.onum" unicode="&#xf737;" horiz-adv-x="545" 
d="M199 -117h-163l357 542h-329l27 125h501l-22 -99z" />
    <glyph glyph-name="eight.onum" unicode="&#xf738;" horiz-adv-x="606" 
d="M285 -12c-140 0 -270 54 -270 179c0 86 66 161 185 191c-54 24 -101 72 -101 134c0 131 138 185 262 185c127 0 260 -54 260 -171c0 -88 -69 -154 -173 -175c63 -33 111 -86 111 -151c0 -121 -132 -192 -274 -192zM337 399c77 5 131 34 131 80c0 41 -51 71 -116 71
c-59 0 -111 -28 -111 -75c0 -36 53 -66 96 -76zM292 114c61 0 124 32 124 81c0 44 -57 74 -106 86c-80 -4 -144 -36 -144 -88s52 -79 126 -79z" />
    <glyph glyph-name="nine.onum" unicode="&#xf739;" horiz-adv-x="608" 
d="M319 561c164 0 262 -95 262 -258c0 -216 -127 -431 -358 -431c-99 0 -173 35 -223 90l87 101c32 -42 86 -65 145 -65c97 0 160 82 187 164c4 9 7 19 8 26c-36 -37 -103 -70 -173 -70c-119 0 -211 70 -211 184c0 142 125 259 276 259zM319 435c-73 0 -128 -52 -128 -115
c0 -54 57 -88 129 -88c47 0 89 20 121 50c1 8 1 25 1 35c0 72 -52 118 -123 118z" />
    <glyph glyph-name="question.smcp" unicode="&#xf73f;" horiz-adv-x="396" 
d="M424 435c0 -131 -187 -125 -187 -193c0 -7 4 -17 12 -25l-104 -25c-12 16 -18 31 -18 50c0 112 160 106 160 168c0 27 -29 43 -73 43c-46 0 -83 -17 -118 -47l-45 85c49 45 114 70 183 70c111 0 190 -52 190 -126zM150 -12c-41 0 -74 34 -74 75c0 48 41 88 89 88
c41 0 74 -34 74 -75c0 -48 -41 -88 -89 -88z" />
    <glyph glyph-name="A.smcp" unicode="&#xf761;" horiz-adv-x="597" 
d="M285 550h161l102 -550h-146l-16 91h-240l-54 -91h-151zM373 206l-35 210l-128 -210h163z" />
    <glyph glyph-name="B.smcp" unicode="&#xf762;" horiz-adv-x="586" 
d="M342 0h-333l121 550h279c102 0 170 -49 170 -126c0 -67 -47 -135 -125 -146c51 -17 80 -62 80 -108c0 -95 -70 -170 -192 -170zM167 115h165c39 0 68 24 68 59c0 27 -20 48 -55 48h-155zM369 337h7c39 0 61 28 61 57c0 28 -24 41 -55 41h-144l-23 -98h154z" />
    <glyph glyph-name="C.smcp" unicode="&#xf763;" horiz-adv-x="585" 
d="M311 -12c-169 0 -279 105 -279 251c0 175 145 323 330 323c119 0 206 -65 237 -154l-119 -43c-19 48 -67 81 -123 81c-100 0 -189 -88 -189 -197c0 -89 63 -145 150 -145c54 0 100 27 133 71l99 -60c-49 -70 -132 -127 -239 -127z" />
    <glyph glyph-name="D.smcp" unicode="&#xf764;" horiz-adv-x="626" 
d="M254 0h-245l121 550h200c154 0 278 -89 278 -235c0 -139 -91 -315 -354 -315zM279 115c134 0 193 102 193 190c0 79 -59 130 -157 130h-78l-70 -320h112z" />
    <glyph glyph-name="E.smcp" unicode="&#xf765;" horiz-adv-x="520" 
d="M424 0h-415l121 550h415l-26 -115h-281l-23 -98h277l-25 -115h-277l-24 -107h283z" />
    <glyph glyph-name="F.smcp" unicode="&#xf766;" horiz-adv-x="509" 
d="M141 0h-132l121 550h415l-25 -115h-282l-23 -98h277l-25 -115h-277z" />
    <glyph glyph-name="G.smcp" unicode="&#xf767;" horiz-adv-x="616" 
d="M316 -12c-158 0 -284 95 -284 248c0 171 138 326 332 326c107 0 196 -56 232 -132l-118 -52c-19 36 -66 67 -124 67c-109 0 -185 -93 -185 -197c0 -87 67 -144 153 -144c46 0 75 13 93 24l17 74h-131l23 108h263l-54 -247c-57 -43 -128 -75 -217 -75z" />
    <glyph glyph-name="H.smcp" unicode="&#xf768;" horiz-adv-x="651" 
d="M534 0h-132l50 224h-261l-50 -224h-132l121 550h132l-46 -211h261l46 211h132z" />
    <glyph glyph-name="I.smcp" unicode="&#xf769;" horiz-adv-x="258" 
d="M141 0h-132l121 550h132z" />
    <glyph glyph-name="J.smcp" unicode="&#xf76a;" horiz-adv-x="433" 
d="M138 -12c-75 0 -138 24 -174 70l75 93c18 -28 49 -47 87 -47c57 0 88 34 100 87l78 359h133l-81 -370c-31 -138 -101 -192 -218 -192z" />
    <glyph glyph-name="K.smcp" unicode="&#xf76b;" horiz-adv-x="566" 
d="M511 0h-158l-124 216l-50 -47l-38 -169h-132l121 550h132l-50 -230l243 230h162l-286 -258z" />
    <glyph glyph-name="L.smcp" unicode="&#xf76c;" horiz-adv-x="469" 
d="M383 0h-374l121 550h132l-96 -435h242z" />
    <glyph glyph-name="M.smcp" unicode="&#xf76d;" horiz-adv-x="757" 
d="M640 0h-132l82 372l-235 -372h-61l-71 372l-82 -372h-132l121 550h175l64 -342l214 342h178z" />
    <glyph glyph-name="N.smcp" unicode="&#xf76e;" horiz-adv-x="649" 
d="M532 0h-135l-177 359l-79 -359h-132l121 550h142l172 -347l77 347h132z" />
    <glyph glyph-name="O.smcp" unicode="&#xf76f;" horiz-adv-x="655" 
d="M311 -12c-167 0 -279 104 -279 253c0 172 139 321 324 321c167 0 279 -104 279 -253c0 -171 -139 -321 -324 -321zM314 104c110 0 185 96 185 196c0 81 -55 146 -147 146c-110 0 -184 -96 -184 -196c0 -81 54 -146 146 -146z" />
    <glyph glyph-name="P.smcp" unicode="&#xf770;" horiz-adv-x="554" 
d="M141 0h-132l121 550h245c118 0 191 -65 191 -158c0 -104 -80 -203 -212 -203h-171zM338 304h10c49 0 81 35 81 77c0 34 -26 54 -68 54h-123l-30 -131h130z" />
    <glyph glyph-name="Q.smcp" unicode="&#xf771;" horiz-adv-x="655" 
d="M311 -12c-167 0 -279 104 -279 253c0 172 139 321 324 321c167 0 279 -104 279 -253c0 -98 -46 -189 -120 -249l24 -37l-92 -57l-26 41c-34 -12 -71 -19 -110 -19zM314 104c14 0 28 2 42 5l-43 68l91 57l44 -69c32 36 51 85 51 135c0 81 -55 146 -147 146
c-110 0 -184 -96 -184 -196c0 -81 54 -146 146 -146z" />
    <glyph glyph-name="R.smcp" unicode="&#xf772;" horiz-adv-x="574" 
d="M485 0h-149l-68 189h-85l-42 -189h-132l121 550h245c122 0 192 -66 192 -156c0 -98 -65 -180 -168 -196zM338 304h7c53 0 84 35 84 77c0 32 -24 54 -65 54h-126l-30 -131h130z" />
    <glyph glyph-name="S.smcp" unicode="&#xf773;" horiz-adv-x="516" 
d="M250 -12c-110 0 -207 33 -263 96l81 99c38 -47 110 -79 190 -79c62 0 81 29 81 58c0 74 -275 54 -275 225c0 86 90 175 224 175c99 0 188 -40 236 -93l-81 -93c-34 39 -105 70 -162 70c-48 0 -78 -24 -78 -53c0 -73 275 -49 275 -225c0 -89 -74 -180 -228 -180z" />
    <glyph glyph-name="T.smcp" unicode="&#xf774;" horiz-adv-x="486" 
d="M255 0h-132l96 435h-157l26 115h445l-26 -115h-156z" />
    <glyph glyph-name="U.smcp" unicode="&#xf775;" horiz-adv-x="646" 
d="M314 -12c-173 0 -263 80 -263 187c0 13 2 29 5 43l74 332h133l-71 -320c-1 -10 -3 -20 -3 -28c0 -63 49 -98 122 -98c75 0 118 47 135 126l71 320h133l-73 -331c-32 -146 -104 -231 -263 -231z" />
    <glyph glyph-name="V.smcp" unicode="&#xf776;" horiz-adv-x="597" 
d="M325 0h-161l-102 550h148l64 -407l245 407h150z" />
    <glyph glyph-name="W.smcp" unicode="&#xf777;" horiz-adv-x="797" 
d="M579 0h-138l-18 358l-174 -358h-138l-45 550h147l12 -376l188 376h103l22 -377l179 377h148z" />
    <glyph glyph-name="X.smcp" unicode="&#xf778;" horiz-adv-x="584" 
d="M534 0h-153l-99 194l-183 -194h-157l271 282l-137 268h153l88 -180l167 180h158l-255 -267z" />
    <glyph glyph-name="Y.smcp" unicode="&#xf779;" horiz-adv-x="565" 
d="M295 0h-131l50 226l-152 324h147l94 -212l183 212h151l-293 -324z" />
    <glyph glyph-name="Z.smcp" unicode="&#xf77a;" horiz-adv-x="524" 
d="M434 0h-452l20 96l336 338h-261l26 116h445l-20 -96l-336 -338h267z" />
    <glyph glyph-name="exclamdown.smcp" unicode="&#xf7a1;" horiz-adv-x="204" 
d="M-35 0l94 345h102l-57 -345h-139zM148 562c41 0 74 -34 74 -75c0 -48 -41 -88 -89 -88c-41 0 -73 34 -73 75c0 48 40 88 88 88z" />
    <glyph glyph-name="questiondown.smcp" unicode="&#xf7b8;" horiz-adv-x="396" 
d="M-28 115c0 131 187 125 187 193c0 7 -4 17 -12 25l104 25c12 -16 18 -31 18 -50c0 -112 -160 -106 -160 -168c0 -27 29 -43 73 -43c46 0 83 17 118 47l45 -85c-49 -45 -114 -70 -183 -70c-111 0 -190 52 -190 126zM246 562c41 0 74 -34 74 -75c0 -48 -41 -88 -89 -88
c-41 0 -74 34 -74 75c0 48 41 88 89 88z" />
    <glyph glyph-name="Agrave.smcp" unicode="&#xf7e0;" horiz-adv-x="597" 
d="M285 550h161l102 -550h-146l-16 91h-240l-54 -91h-151zM373 206l-35 210l-128 -210h163zM462 606h-89l-130 144h117z" />
    <glyph glyph-name="Aacute.smcp" unicode="&#xf7e1;" horiz-adv-x="597" 
d="M285 550h161l102 -550h-146l-16 91h-240l-54 -91h-151zM373 206l-35 210l-128 -210h163zM581 750l-194 -144h-91l166 144h119z" />
    <glyph glyph-name="Acircumflex.smcp" unicode="&#xf7e2;" horiz-adv-x="597" 
d="M285 550h161l102 -550h-146l-16 91h-240l-54 -91h-151zM373 206l-35 210l-128 -210h163zM530 606h-76l-54 89l-90 -89h-80l124 144h114z" />
    <glyph glyph-name="Atilde.smcp" unicode="&#xf7e3;" horiz-adv-x="597" 
d="M285 550h161l102 -550h-146l-16 91h-240l-54 -91h-151zM373 206l-35 210l-128 -210h163zM450 604c-70 0 -74 68 -120 68c-20 0 -36 -19 -45 -62h-68c17 85 51 134 121 134s75 -67 121 -67c20 0 35 19 45 61h68c-18 -85 -52 -134 -122 -134z" />
    <glyph glyph-name="Adieresis.smcp" unicode="&#xf7e4;" horiz-adv-x="597" 
d="M285 550h161l102 -550h-146l-16 91h-240l-54 -91h-151zM373 206l-35 210l-128 -210h163zM567 682c0 -40 -37 -76 -77 -76c-34 0 -60 26 -60 60c0 40 37 76 76 76c35 0 61 -26 61 -60zM355 682c0 -40 -36 -76 -76 -76c-34 0 -60 26 -60 60c0 40 37 76 76 76
c35 0 60 -26 60 -60z" />
    <glyph glyph-name="Aring.smcp" unicode="&#xf7e5;" horiz-adv-x="597" 
d="M285 550h161l102 -550h-146l-16 91h-240l-54 -91h-151zM373 206l-35 210l-128 -210h163zM390 597c-57 0 -96 39 -96 96c0 62 53 115 115 115c57 0 96 -39 96 -96c0 -62 -53 -115 -115 -115zM395 656c27 0 51 23 51 50c0 25 -17 43 -42 43c-27 0 -51 -23 -51 -50
c0 -25 17 -43 42 -43z" />
    <glyph glyph-name="AE.smcp" unicode="&#xf7e6;" horiz-adv-x="845" 
d="M749 0h-415l20 91h-189l-74 -91h-151l463 550h467l-25 -115h-283l-22 -98h277l-26 -115h-276l-23 -107h283zM379 206l47 210l-173 -210h126z" />
    <glyph glyph-name="Ccedilla.smcp" unicode="&#xf7e7;" horiz-adv-x="585" 
d="M250 -195c-53 0 -96 18 -119 41l35 47c24 -22 54 -35 85 -35c30 0 49 14 49 35c0 14 -10 24 -29 24c-12 0 -22 -5 -30 -14l-40 26l38 66c-128 25 -207 119 -207 244c0 175 145 323 330 323c119 0 206 -65 237 -154l-119 -43c-19 48 -67 81 -123 81
c-100 0 -189 -88 -189 -197c0 -89 63 -145 150 -145c54 0 100 27 133 71l99 -60c-49 -70 -132 -127 -239 -127h-14l-24 -39c10 8 19 10 31 10c33 0 59 -23 59 -62c0 -56 -49 -92 -113 -92z" />
    <glyph glyph-name="Egrave.smcp" unicode="&#xf7e8;" horiz-adv-x="520" 
d="M424 0h-415l121 550h415l-26 -115h-281l-23 -98h277l-25 -115h-277l-24 -107h283zM434 606h-89l-130 144h117z" />
    <glyph glyph-name="Eacute.smcp" unicode="&#xf7e9;" horiz-adv-x="520" 
d="M424 0h-415l121 550h415l-26 -115h-281l-23 -98h277l-25 -115h-277l-24 -107h283zM554 750l-194 -144h-91l166 144h119z" />
    <glyph glyph-name="Ecircumflex.smcp" unicode="&#xf7ea;" horiz-adv-x="520" 
d="M424 0h-415l121 550h415l-26 -115h-281l-23 -98h277l-25 -115h-277l-24 -107h283zM503 606h-76l-54 89l-90 -89h-80l124 144h114z" />
    <glyph glyph-name="Edieresis.smcp" unicode="&#xf7eb;" horiz-adv-x="520" 
d="M424 0h-415l121 550h415l-26 -115h-281l-23 -98h277l-25 -115h-277l-24 -107h283zM539 682c0 -40 -37 -76 -77 -76c-34 0 -60 26 -60 60c0 40 37 76 76 76c35 0 61 -26 61 -60zM327 682c0 -40 -36 -76 -76 -76c-34 0 -60 26 -60 60c0 40 37 76 76 76c35 0 60 -26 60 -60z
" />
    <glyph glyph-name="Igrave.smcp" unicode="&#xf7ec;" horiz-adv-x="253" 
d="M141 0h-132l121 550h132zM289 606h-89l-130 144h117z" />
    <glyph glyph-name="Iacute.smcp" unicode="&#xf7ed;" horiz-adv-x="253" 
d="M141 0h-132l121 550h132zM409 750l-194 -144h-91l166 144h119z" />
    <glyph glyph-name="Icircumflex.smcp" unicode="&#xf7ee;" horiz-adv-x="253" 
d="M141 0h-132l121 550h132zM358 606h-76l-54 89l-90 -89h-80l124 144h114z" />
    <glyph glyph-name="Idieresis.smcp" unicode="&#xf7ef;" horiz-adv-x="253" 
d="M141 0h-132l121 550h132zM396 682c0 -40 -37 -76 -77 -76c-34 0 -60 26 -60 60c0 40 37 76 76 76c35 0 61 -26 61 -60zM184 682c0 -40 -36 -76 -76 -76c-34 0 -60 26 -60 60c0 40 37 76 76 76c35 0 60 -26 60 -60z" />
    <glyph glyph-name="Eth.smcp" unicode="&#xf7f0;" horiz-adv-x="635" 
d="M254 0h-245l51 232h-55l21 91h54l50 227h200c154 0 278 -89 278 -235c0 -139 -91 -315 -354 -315zM279 115c134 0 193 102 193 190c0 79 -59 130 -157 130h-78l-25 -112h112l-20 -91h-112l-25 -117h112z" />
    <glyph glyph-name="Ntilde.smcp" unicode="&#xf7f1;" horiz-adv-x="649" 
d="M532 0h-135l-177 359l-79 -359h-132l121 550h142l172 -347l77 347h132zM475 604c-70 0 -74 68 -120 68c-20 0 -36 -19 -45 -62h-68c17 85 51 134 121 134s75 -67 121 -67c20 0 35 19 45 61h68c-18 -85 -52 -134 -122 -134z" />
    <glyph glyph-name="Ograve.smcp" unicode="&#xf7f2;" horiz-adv-x="655" 
d="M311 -12c-167 0 -279 104 -279 253c0 172 139 321 324 321c167 0 279 -104 279 -253c0 -171 -139 -321 -324 -321zM314 104c110 0 185 96 185 196c0 81 -55 146 -147 146c-110 0 -184 -96 -184 -196c0 -81 54 -146 146 -146zM490 606h-89l-130 144h117z" />
    <glyph glyph-name="Oacute.smcp" unicode="&#xf7f3;" horiz-adv-x="655" 
d="M311 -12c-167 0 -279 104 -279 253c0 172 139 321 324 321c167 0 279 -104 279 -253c0 -171 -139 -321 -324 -321zM314 104c110 0 185 96 185 196c0 81 -55 146 -147 146c-110 0 -184 -96 -184 -196c0 -81 54 -146 146 -146zM611 750l-194 -144h-91l166 144h119z" />
    <glyph glyph-name="Ocircumflex.smcp" unicode="&#xf7f4;" horiz-adv-x="655" 
d="M311 -12c-167 0 -279 104 -279 253c0 172 139 321 324 321c167 0 279 -104 279 -253c0 -171 -139 -321 -324 -321zM314 104c110 0 185 96 185 196c0 81 -55 146 -147 146c-110 0 -184 -96 -184 -196c0 -81 54 -146 146 -146zM559 606h-76l-54 89l-90 -89h-80l124 144h114
z" />
    </font>
</defs>
</svg>
