<?xml version="1.0" standalone="no"?>
<!DOCTYPE svg PUBLIC "-//W3C//DTD SVG 1.1//EN" "http://www.w3.org/Graphics/SVG/1.1/DTD/svg11.dtd" >
<svg xmlns="http://www.w3.org/2000/svg" xmlns:xlink="http://www.w3.org/1999/xlink" version="1.1">
<metadata>
Created by FontForge 20190801 at Wed Apr 19 14:44:57 2006
 By root
Copyright (c) 1981 - 2006 Linotype GmbH, www.linotype.com. All rights reserved. Copyright (c) 1989 - 2002 Adobe Systems Incorporated.  All Rights Reserved.
</metadata>
<defs>
<font id="AvenirLTStd-MediumOblique" horiz-adv-x="556" >
  <font-face 
    font-family="Avenir LT Std"
    font-weight="500"
    font-style="oblique"
    font-stretch="normal"
    units-per-em="1000"
    panose-1="2 11 6 3 2 2 3 2 2 4"
    ascent="756"
    descent="-244"
    x-height="474"
    cap-height="708"
    bbox="-166 -282 1061 924"
    underline-thickness="50"
    underline-position="-100"
    slope="-8"
    stemh="78"
    stemv="90"
    unicode-range="U+0020-FB02"
  />
<missing-glyph horiz-adv-x="598" 
d="M98 0v700h500v-700h-500zM348 395l170 255h-340zM378 350l170 -255v510zM178 50h340l-170 255zM148 605v-510l170 255z" />
    <glyph glyph-name="fi" unicode="fi" 
d="M390 0l67 474h90l-67 -474h-90zM460 643c5 36 40 66 76 66s61 -30 56 -66s-39 -66 -75 -66s-62 30 -57 66zM103 0l56 396h-102l11 78h102l15 106c17 126 70 188 188 188c20 0 42 -1 66 -7l-21 -80c-16 7 -32 9 -50 9c-66 0 -83 -41 -92 -107l-15 -109h107l-11 -78h-108
l-56 -396h-90z" />
    <glyph glyph-name="fl" unicode="fl" 
d="M391 0l106 756h90l-106 -756h-90zM103 0l56 396h-102l11 78h102l15 106c17 126 70 188 188 188c20 0 42 -1 66 -7l-21 -80c-16 7 -32 9 -50 9c-66 0 -83 -41 -92 -107l-15 -109h107l-11 -78h-108l-56 -396h-90z" />
    <glyph glyph-name=".notdef" horiz-adv-x="598" 
d="M98 0v700h500v-700h-500zM348 395l170 255h-340zM378 350l170 -255v510zM178 50h340l-170 255zM148 605v-510l170 255z" />
    <glyph glyph-name="space" unicode=" " horiz-adv-x="278" 
 />
    <glyph glyph-name="exclam" unicode="!" horiz-adv-x="278" 
d="M285 708l-71 -504h-96l71 504h96zM81 60c5 36 40 66 76 66s61 -30 56 -66s-39 -66 -75 -66s-62 30 -57 66z" />
    <glyph glyph-name="quotedbl" unicode="&#x22;" horiz-adv-x="519" 
d="M211 462l35 246h78l-35 -246h-78zM360 462l35 246h78l-35 -246h-78z" />
    <glyph glyph-name="numbersign" unicode="#" 
d="M92 0l57 204h-95l11 78h106l40 144h-95l11 78h106l57 204h79l-57 -204h116l57 204h79l-57 -204h95l-11 -78h-106l-40 -144h95l-11 -78h-106l-57 -204h-79l57 204h-116l-57 -204h-79zM406 426h-116l-40 -144h116z" />
    <glyph glyph-name="dollar" unicode="$" 
d="M411 792l-10 -72c73 0 144 -24 187 -77l-81 -70c-25 39 -68 62 -118 63l-33 -236l-2 -1c112 -32 208 -69 189 -205c-17 -122 -128 -199 -245 -206l-10 -72h-54l10 72c-87 0 -162 26 -206 96l87 69c22 -50 75 -79 131 -81l35 246c-104 28 -193 78 -175 205
c16 114 123 188 231 197l10 72h54zM304 414l31 222c-64 -10 -115 -50 -123 -113c-9 -63 38 -93 92 -109zM343 304l-33 -232c67 8 127 50 137 118c9 69 -47 95 -104 114z" />
    <glyph glyph-name="percent" unicode="%" horiz-adv-x="852" 
d="M114 549c14 98 104 177 202 177s166 -79 152 -177s-104 -177 -202 -177s-166 79 -152 177zM192 549c-8 -55 30 -99 85 -99s105 44 113 99s-30 99 -85 99s-105 -44 -113 -99zM483 159c14 98 104 177 202 177s166 -79 152 -177c-13 -98 -104 -177 -202 -177
s-165 79 -152 177zM561 159c-7 -55 30 -99 85 -99s106 44 113 99c8 55 -30 99 -85 99s-105 -44 -113 -99zM780 709l-549 -740l-56 31l549 740z" />
    <glyph glyph-name="ampersand" unicode="&#x26;" horiz-adv-x="722" 
d="M574 165l138 -165h-129l-74 94c-70 -72 -138 -112 -233 -112c-160 0 -217 102 -203 205c14 99 98 162 190 203c-38 48 -70 95 -60 164c15 108 111 166 212 166c99 0 176 -53 161 -160c-13 -89 -97 -145 -173 -182l120 -146l109 145h109zM480 560c6 47 -26 76 -76 76
c-51 0 -98 -30 -105 -83c-7 -47 26 -87 53 -118c53 27 119 61 128 125zM461 156l-146 178c-62 -33 -129 -71 -139 -144c-10 -69 47 -124 115 -124c69 0 127 46 170 90z" />
    <glyph glyph-name="quoteright" unicode="&#x2019;" horiz-adv-x="278" 
d="M322 708l-119 -246h-82l104 246h97z" />
    <glyph glyph-name="parenleft" unicode="(" horiz-adv-x="278" 
d="M297 732l55 -38c-105 -135 -163 -245 -186 -406c-20 -146 3 -287 72 -404l-66 -40c-74 125 -107 280 -84 444c22 153 95 313 209 444z" />
    <glyph glyph-name="parenright" unicode=")" horiz-adv-x="278" 
d="M62 -156l-55 38c105 135 163 245 185 406c21 146 -2 287 -71 404l66 40c74 -125 107 -280 83 -444c-21 -153 -95 -313 -208 -444z" />
    <glyph glyph-name="asterisk" unicode="*" horiz-adv-x="464" 
d="M369 708l-21 -147l145 47l12 -67l-145 -45l71 -119l-61 -41l-74 122l-105 -120l-50 41l106 117l-136 48l31 65l134 -48l21 147h72z" />
    <glyph glyph-name="plus" unicode="+" horiz-adv-x="666" 
d="M103 264l11 78h228l32 228h78l-32 -228h228l-11 -78h-228l-32 -228h-78l32 228h-228z" />
    <glyph glyph-name="comma" unicode="," horiz-adv-x="278" 
d="M230 114l-119 -246h-82l104 246h97z" />
    <glyph glyph-name="hyphen" unicode="-" horiz-adv-x="316" 
d="M321 284l-12 -84h-246l12 84h246z" />
    <glyph glyph-name="period" unicode="." horiz-adv-x="278" 
d="M138 -6c-36 0 -62 30 -57 66s40 66 76 66s61 -30 56 -66s-39 -66 -75 -66z" />
    <glyph glyph-name="slash" unicode="/" horiz-adv-x="389" 
d="M491 726l-427 -770l-67 26l429 770z" />
    <glyph glyph-name="zero" unicode="0" 
d="M84 354c22 155 94 366 295 366s215 -211 193 -366c-21 -149 -95 -366 -296 -366s-213 217 -192 366zM180 354c-13 -92 -26 -282 108 -282s175 190 188 282c14 98 25 282 -109 282s-173 -184 -187 -282z" />
    <glyph glyph-name="one" unicode="1" 
d="M270 0l84 598l-147 -120l-46 67l220 163h85l-100 -708h-96z" />
    <glyph glyph-name="two" unicode="2" 
d="M46 0l14 102l324 282c44 38 90 87 98 145c10 70 -39 113 -106 113c-69 0 -123 -42 -144 -109l-103 9c37 125 138 184 260 184s214 -66 195 -196c-13 -93 -82 -160 -154 -221l-264 -225h356l-12 -84h-464z" />
    <glyph glyph-name="three" unicode="3" 
d="M66 142l105 31c14 -68 41 -101 116 -101c74 0 144 52 155 128c17 118 -90 132 -180 132l11 84c146 0 187 41 197 111c11 75 -35 115 -103 115c-52 0 -101 -33 -129 -82l-94 33c50 90 139 133 233 133c116 0 208 -62 190 -193c-10 -74 -69 -139 -144 -160v-2
c87 -15 126 -91 114 -178c-19 -136 -140 -205 -265 -205c-108 0 -189 47 -206 154z" />
    <glyph glyph-name="four" unicode="4" 
d="M336 0l22 156h-302l14 98l346 454h116l-66 -468h100l-12 -84h-100l-22 -156h-96zM370 240l49 354h-2l-265 -354h218z" />
    <glyph glyph-name="five" unicode="5" 
d="M571 708l-13 -90h-287l-28 -177c21 9 74 15 97 15c133 0 207 -96 187 -234c-20 -141 -144 -234 -282 -234c-96 0 -173 51 -193 143l102 33c16 -65 55 -92 118 -92c76 0 146 55 158 145c15 103 -48 155 -149 155c-36 0 -100 -13 -151 -37l61 373h380z" />
    <glyph glyph-name="six" unicode="6" 
d="M498 708l-217 -274h4c25 11 51 16 80 16c102 0 210 -69 188 -224c-22 -156 -144 -238 -277 -238s-230 90 -211 228c13 87 48 141 101 209l219 283h113zM162 219c-12 -86 38 -147 126 -147s156 61 168 147s-39 147 -127 147s-155 -61 -167 -147z" />
    <glyph glyph-name="seven" unicode="7" 
d="M97 0l375 624h-342l12 84h445l-12 -82l-370 -626h-108z" />
    <glyph glyph-name="eight" unicode="8" 
d="M276 -12c-129 0 -219 81 -200 215c12 88 79 152 159 173v3c-51 14 -101 67 -88 165c15 107 121 176 232 176s197 -69 182 -176c-13 -98 -79 -151 -134 -165v-3c74 -21 123 -85 111 -173c-19 -134 -133 -215 -262 -215zM241 530c-7 -55 25 -112 96 -112
c74 0 118 54 126 112c10 65 -29 112 -95 112c-61 0 -117 -46 -127 -112zM288 72c80 0 143 54 154 131c12 86 -42 130 -117 131c-78 -1 -143 -56 -153 -131c-12 -83 43 -131 116 -131z" />
    <glyph glyph-name="nine" unicode="9" 
d="M158 0l217 274h-4c-25 -11 -52 -16 -81 -16c-102 0 -209 69 -187 224c22 156 143 238 276 238s231 -90 211 -228c-12 -87 -48 -141 -100 -209l-219 -283h-113zM494 489c12 86 -39 147 -127 147s-155 -61 -167 -147s38 -147 126 -147s156 61 168 147z" />
    <glyph glyph-name="colon" unicode=":" horiz-adv-x="278" 
d="M188 348c-36 0 -62 30 -57 66s39 66 75 66s62 -30 57 -66s-39 -66 -75 -66zM81 60c5 36 40 66 76 66s61 -30 56 -66s-39 -66 -75 -66s-62 30 -57 66z" />
    <glyph glyph-name="semicolon" unicode=";" horiz-adv-x="278" 
d="M230 114l-119 -246h-82l104 246h97zM131 413c5 36 39 66 75 66s62 -30 57 -66s-39 -66 -75 -66s-62 30 -57 66z" />
    <glyph glyph-name="less" unicode="&#x3c;" horiz-adv-x="666" 
d="M617 121l-11 -78l-503 219l11 82l565 220l-11 -79l-477 -182z" />
    <glyph glyph-name="equal" unicode="=" horiz-adv-x="666" 
d="M125 420h534l-11 -78h-534zM103 263h534l-11 -78h-534z" />
    <glyph glyph-name="greater" unicode="&#x3e;" horiz-adv-x="666" 
d="M134 485l11 78l503 -219l-11 -82l-565 -220l11 79l478 182z" />
    <glyph glyph-name="question" unicode="?" horiz-adv-x="500" 
d="M334 198h-96l8 61c11 73 32 88 91 138c48 41 102 79 110 139c9 61 -32 106 -91 106c-65 0 -114 -46 -132 -112l-100 10c33 116 129 186 246 186c112 0 191 -67 174 -185c-7 -51 -29 -94 -59 -120l-80 -71c-46 -41 -57 -52 -65 -108zM199 60c5 36 40 66 76 66
s61 -30 56 -66s-39 -66 -75 -66s-62 30 -57 66z" />
    <glyph glyph-name="at" unicode="@" horiz-adv-x="800" 
d="M490 485c-94 0 -158 -91 -171 -187c-7 -49 10 -80 60 -80c81 0 151 103 162 179c6 47 -9 88 -51 88zM691 544l-122 -277c-5 -10 -8 -19 -9 -25c-2 -17 6 -24 26 -24c56 0 135 90 150 196c22 157 -86 246 -227 246c-171 0 -313 -135 -338 -308c-24 -177 89 -304 257 -304
c95 0 190 36 247 101h79c-70 -101 -210 -167 -338 -167c-211 0 -351 165 -322 374c29 205 220 370 423 370c186 0 323 -128 298 -304c-24 -170 -180 -282 -274 -282c-34 0 -59 23 -54 64h-4c-35 -32 -84 -64 -133 -64c-85 0 -127 70 -115 157c18 131 125 266 261 266
c46 0 86 -22 96 -76h2l24 57h73z" />
    <glyph glyph-name="A" unicode="A" horiz-adv-x="704" 
d="M1 0l412 708h87l203 -708h-112l-46 175h-337l-95 -175h-112zM253 259h268l-86 325h-2z" />
    <glyph glyph-name="B" unicode="B" horiz-adv-x="630" 
d="M91 0l100 708h246c123 0 206 -57 190 -177c-12 -81 -69 -132 -144 -156l-1 -2c85 -6 142 -81 129 -176c-18 -127 -139 -197 -277 -197h-243zM275 624l-30 -210h131c73 0 136 29 147 106c8 56 -20 104 -97 104h-151zM233 330l-34 -246h141c58 0 156 20 170 120
c11 84 -42 126 -135 126h-142z" />
    <glyph glyph-name="C" unicode="C" horiz-adv-x="704" 
d="M751 616l-89 -61c-33 52 -95 81 -160 81c-159 0 -281 -127 -304 -288c-21 -149 60 -276 225 -276c81 0 148 36 198 95l73 -61c-25 -29 -124 -124 -286 -124c-225 0 -337 188 -312 366c31 220 204 378 422 378c93 0 186 -35 233 -110z" />
    <glyph glyph-name="D" unicode="D" horiz-adv-x="741" 
d="M75 0l100 708h247c299 0 340 -223 322 -354c-26 -181 -185 -354 -438 -354h-231zM258 618l-74 -528h121c162 0 312 89 337 264c12 90 -10 264 -240 264h-144z" />
    <glyph glyph-name="E" unicode="E" horiz-adv-x="611" 
d="M91 0l100 708h457l-13 -90h-361l-30 -211h336l-12 -90h-336l-32 -227h379l-13 -90h-475z" />
    <glyph glyph-name="F" unicode="F" horiz-adv-x="574" 
d="M91 0l100 708h445l-13 -90h-349l-31 -222h325l-13 -90h-325l-43 -306h-96z" />
    <glyph glyph-name="G" unicode="G" horiz-adv-x="778" 
d="M497 396h253l-49 -349c-75 -42 -192 -65 -278 -65c-240 0 -354 171 -326 372c29 210 205 372 421 372c130 0 204 -35 251 -92l-78 -73c-50 56 -115 75 -186 75c-162 0 -284 -127 -306 -282c-23 -160 79 -282 235 -282c67 0 133 13 179 37l28 197h-157z" />
    <glyph glyph-name="H" unicode="H" horiz-adv-x="741" 
d="M91 0l100 708h96l-42 -294h367l42 294h96l-100 -708h-96l46 324h-367l-46 -324h-96z" />
    <glyph glyph-name="I" unicode="I" horiz-adv-x="278" 
d="M91 0l100 708h96l-100 -708h-96z" />
    <glyph glyph-name="J" unicode="J" horiz-adv-x="482" 
d="M345 233l67 475h96l-72 -506c-25 -178 -159 -220 -238 -220c-100 0 -165 51 -170 155l97 21c4 -53 33 -86 86 -86c95 0 123 81 134 161z" />
    <glyph glyph-name="K" unicode="K" horiz-adv-x="648" 
d="M91 0l100 708h96l-43 -306h8l356 306h134l-388 -327l311 -381h-140l-280 354h-8l-50 -354h-96z" />
    <glyph glyph-name="L" unicode="L" horiz-adv-x="519" 
d="M91 0l100 708h96l-87 -618h325l-13 -90h-421z" />
    <glyph glyph-name="M" unicode="M" horiz-adv-x="906" 
d="M84 0l100 708h143l149 -536h4l299 536h143l-100 -708h-96l82 582h-2l-321 -582h-64l-157 582h-2l-82 -582h-96z" />
    <glyph glyph-name="N" unicode="N" horiz-adv-x="796" 
d="M91 0l100 708h126l308 -582h2l82 582h96l-100 -708h-122l-312 582h-2l-82 -582h-96z" />
    <glyph glyph-name="O" unicode="O" horiz-adv-x="832" 
d="M413 -18c-216 0 -346 162 -316 372c29 210 205 372 421 372s346 -162 317 -372c-30 -210 -206 -372 -422 -372zM426 72c162 0 285 127 307 282s-66 282 -228 282s-284 -127 -306 -282s65 -282 227 -282z" />
    <glyph glyph-name="P" unicode="P" horiz-adv-x="593" 
d="M91 0l100 708h249c181 0 211 -109 199 -198c-13 -89 -74 -198 -255 -198h-153l-44 -312h-96zM275 624l-32 -228h126c76 0 154 18 168 114c13 96 -60 114 -136 114h-126z" />
    <glyph glyph-name="Q" unicode="Q" horiz-adv-x="832" 
d="M834 84l-12 -84h-408c-201 0 -346 151 -316 362c29 208 210 364 417 364c199 0 340 -152 311 -354c-17 -120 -90 -238 -202 -286v-2h210zM423 90c155 0 279 123 301 278c21 150 -74 268 -225 268c-148 0 -277 -119 -298 -266c-22 -155 68 -280 222 -280z" />
    <glyph glyph-name="R" unicode="R" horiz-adv-x="611" 
d="M91 0l100 708h249c181 0 211 -109 199 -198c-13 -90 -92 -175 -201 -187l156 -323h-120l-136 312h-107l-44 -312h-96zM275 624l-32 -228h126c76 0 154 18 168 114c13 96 -60 114 -136 114h-126z" />
    <glyph glyph-name="S" unicode="S" 
d="M44 80l89 68c26 -52 82 -76 139 -76c63 0 147 40 158 118c23 163 -341 62 -302 338c12 83 98 198 268 198c77 0 149 -16 193 -81l-88 -71c-19 37 -63 62 -118 62c-106 0 -147 -64 -153 -108c-25 -179 339 -72 303 -327c-19 -137 -141 -219 -277 -219
c-91 0 -173 31 -212 98z" />
    <glyph glyph-name="T" unicode="T" horiz-adv-x="574" 
d="M239 0l87 618h-228l13 90h552l-13 -90h-228l-87 -618h-96z" />
    <glyph glyph-name="U" unicode="U" horiz-adv-x="704" 
d="M178 708h96l-61 -434c-13 -88 15 -202 149 -202s194 114 207 202l61 434h96l-64 -449c-23 -164 -158 -277 -313 -277s-258 113 -235 277z" />
    <glyph glyph-name="V" unicode="V" horiz-adv-x="630" 
d="M267 0l-173 708h111l127 -576h2l297 576h105l-379 -708h-90z" />
    <glyph glyph-name="W" unicode="W" horiz-adv-x="962" 
d="M208 0l-107 708h100l76 -566h2l247 566h110l87 -566h2l236 566h100l-306 -708h-101l-91 578h-2l-252 -578h-101z" />
    <glyph glyph-name="X" unicode="X" horiz-adv-x="648" 
d="M-2 0l309 372l-190 336h123l145 -272l221 272h120l-284 -335l208 -373h-126l-160 307l-247 -307h-119z" />
    <glyph glyph-name="Y" unicode="Y" horiz-adv-x="612" 
d="M258 0l42 302l-210 406h123l149 -311l243 311h117l-326 -406l-42 -302h-96z" />
    <glyph glyph-name="Z" unicode="Z" horiz-adv-x="593" 
d="M32 0l13 90l477 528h-391l13 90h511l-13 -90l-475 -528h407l-13 -90h-529z" />
    <glyph glyph-name="bracketleft" unicode="[" horiz-adv-x="278" 
d="M50 -156l125 888h174l-9 -66h-90l-107 -756h90l-9 -66h-174z" />
    <glyph glyph-name="backslash" unicode="\" horiz-adv-x="389" 
d="M313 -44l-211 770l73 26l211 -770z" />
    <glyph glyph-name="bracketright" unicode="]" horiz-adv-x="278" 
d="M10 -156l9 66h90l107 756h-90l9 66h174l-125 -888h-174z" />
    <glyph glyph-name="asciicircum" unicode="^" horiz-adv-x="666" 
d="M119 276l274 432h80l152 -432h-83l-121 353l-219 -353h-83z" />
    <glyph glyph-name="underscore" unicode="_" horiz-adv-x="500" 
d="M-18 -125l7 50h500l-7 -50h-500z" />
    <glyph glyph-name="quoteleft" unicode="&#x2018;" horiz-adv-x="278" 
d="M121 462l119 246h82l-104 -246h-97z" />
    <glyph glyph-name="a" unicode="a" horiz-adv-x="519" 
d="M175 360l-47 56c57 47 132 70 198 70c140 0 188 -76 176 -158l-34 -242c-5 -33 -7 -61 -8 -86h-80c1 24 4 48 7 72h-2c-48 -61 -106 -84 -178 -84c-88 0 -157 50 -144 142c17 122 140 164 284 164h66l3 20c7 49 -22 100 -99 100c-69 0 -106 -29 -142 -54zM404 228h-48
c-85 0 -191 -15 -202 -91c-7 -54 29 -77 91 -77c100 0 146 74 155 138z" />
    <glyph glyph-name="b" unicode="b" horiz-adv-x="611" 
d="M68 0l106 756h90l-49 -350h2c39 49 108 80 176 80c146 0 226 -107 206 -249c-19 -140 -129 -249 -276 -249c-64 0 -126 29 -153 80h-2l-10 -68h-90zM324 72c96 0 166 69 179 165c14 96 -36 165 -132 165s-166 -69 -180 -165c-13 -96 37 -165 133 -165z" />
    <glyph glyph-name="c" unicode="c" horiz-adv-x="482" 
d="M533 410l-77 -62c-28 35 -61 53 -111 53c-98 0 -159 -79 -171 -168c-13 -89 37 -161 130 -161c50 0 88 18 123 53l55 -64c-55 -52 -122 -73 -191 -73c-146 0 -233 101 -213 247c21 146 135 250 283 250c69 0 132 -24 172 -75z" />
    <glyph glyph-name="d" unicode="d" horiz-adv-x="611" 
d="M649 756l-106 -756h-90l10 68h-2c-43 -51 -113 -80 -177 -80c-147 0 -225 109 -206 249c20 142 130 249 276 249c68 0 129 -31 154 -80h2l49 350h90zM307 72c96 0 166 69 179 165c14 96 -36 165 -132 165s-166 -69 -180 -165c-13 -96 37 -165 133 -165z" />
    <glyph glyph-name="e" unicode="e" 
d="M545 204h-380c-12 -83 57 -138 140 -138c55 0 99 28 140 71l61 -52c-59 -65 -133 -97 -224 -97c-150 0 -229 108 -209 249c20 142 138 249 280 249c167 0 213 -128 196 -250zM175 276h284c9 79 -27 138 -118 138c-89 0 -157 -75 -166 -138z" />
    <glyph glyph-name="f" unicode="f" horiz-adv-x="333" 
d="M103 0l56 396h-102l11 78h102l15 106c17 126 70 188 188 188c20 0 42 -1 66 -7l-21 -80c-16 7 -32 9 -50 9c-66 0 -83 -41 -92 -107l-15 -109h107l-11 -78h-108l-56 -396h-90z" />
    <glyph glyph-name="g" unicode="g" horiz-adv-x="611" 
d="M610 474l-66 -470c-21 -143 -139 -244 -294 -244c-90 0 -161 23 -220 85l72 76c40 -50 89 -77 158 -77c134 0 183 84 194 164l10 70h-3c-42 -57 -111 -84 -176 -84c-139 0 -227 105 -207 243c20 140 129 249 276 249c64 0 126 -29 154 -80h2l10 68h90zM354 402
c-96 0 -166 -69 -180 -165c-13 -96 38 -159 134 -159s165 63 178 159c14 96 -36 165 -132 165z" />
    <glyph glyph-name="h" unicode="h" 
d="M68 0l106 756h90l-50 -355h2c30 50 95 85 168 85c92 0 165 -55 147 -181l-43 -305h-90l39 280c13 89 -33 122 -90 122c-75 0 -139 -48 -155 -158l-34 -244h-90z" />
    <glyph glyph-name="i" unicode="i" horiz-adv-x="240" 
d="M75 0l67 474h90l-67 -474h-90zM145 644c5 36 39 66 75 66s62 -30 57 -66c-6 -36 -40 -66 -76 -66s-62 30 -56 66z" />
    <glyph glyph-name="j" unicode="j" horiz-adv-x="240" 
d="M142 474h90l-77 -542c-6 -49 -25 -172 -169 -172c-20 0 -38 2 -56 9l21 83c11 -4 24 -8 36 -8c49 0 71 32 79 92zM145 644c5 36 39 66 75 66s62 -30 57 -66c-6 -36 -40 -66 -76 -66s-62 30 -56 66z" />
    <glyph glyph-name="k" unicode="k" horiz-adv-x="519" 
d="M68 0l106 756h90l-68 -488l232 205h125l-251 -215l204 -258h-128l-185 246l-35 -246h-90z" />
    <glyph glyph-name="l" unicode="l" horiz-adv-x="240" 
d="M75 0l106 756h90l-106 -756h-90z" />
    <glyph glyph-name="m" unicode="m" horiz-adv-x="852" 
d="M68 0l67 474h84l-11 -74h2c13 28 79 86 164 86c70 0 114 -30 136 -88c39 58 105 88 162 88c146 0 166 -104 151 -210l-39 -276h-90l37 264c10 72 5 138 -82 138s-130 -59 -142 -143l-36 -259h-90l35 248c13 90 9 154 -78 154c-65 0 -130 -49 -145 -156l-35 -246h-90z" />
    <glyph glyph-name="n" unicode="n" 
d="M68 0l67 474h90l-11 -73h2c30 50 95 85 168 85c92 0 165 -55 147 -181l-43 -305h-90l39 280c13 89 -33 122 -90 122c-75 0 -139 -48 -155 -158l-34 -244h-90z" />
    <glyph glyph-name="o" unicode="o" horiz-adv-x="594" 
d="M174 237c-13 -96 37 -165 133 -165s166 69 179 165c14 96 -36 165 -132 165s-166 -69 -180 -165zM78 237c20 138 146 249 287 249s237 -111 217 -249c-19 -138 -146 -249 -287 -249s-236 111 -217 249z" />
    <glyph glyph-name="p" unicode="p" horiz-adv-x="611" 
d="M28 -282l107 756h90l-10 -68h2c42 51 112 80 176 80c147 0 226 -109 206 -249c-20 -142 -130 -249 -276 -249c-68 0 -128 31 -153 80h-2l-50 -350h-90zM371 402c-96 0 -166 -69 -180 -165c-13 -96 37 -165 133 -165s166 69 179 165c14 96 -36 165 -132 165z" />
    <glyph glyph-name="q" unicode="q" horiz-adv-x="611" 
d="M610 474l-99 -702h-90l42 296h-2c-39 -49 -109 -80 -177 -80c-146 0 -226 107 -206 249c20 140 129 249 276 249c64 0 126 -29 154 -80h2l10 68h90zM354 402c-96 0 -166 -69 -180 -165c-13 -96 37 -165 133 -165s166 69 179 165c14 96 -36 165 -132 165z" />
    <glyph glyph-name="r" unicode="r" horiz-adv-x="370" 
d="M68 0l67 474h90l-11 -73h2c30 50 95 85 154 85c14 0 28 -2 39 -6l-17 -97c-15 4 -29 7 -43 7c-88 0 -143 -48 -158 -152l-33 -238h-90z" />
    <glyph glyph-name="s" unicode="s" horiz-adv-x="444" 
d="M447 408l-77 -53c-17 26 -45 47 -90 47c-42 0 -82 -19 -87 -53c-8 -57 72 -65 111 -74c75 -19 131 -49 118 -138c-15 -107 -119 -149 -213 -149c-78 0 -133 20 -171 84l76 56c25 -29 55 -56 107 -56c46 0 99 19 105 60c7 54 -66 64 -104 73c-75 19 -139 44 -126 135
c14 99 111 146 200 146c63 0 125 -22 151 -78z" />
    <glyph glyph-name="t" unicode="t" horiz-adv-x="370" 
d="M389 474l-11 -78h-129l-31 -215c-7 -53 -15 -109 53 -109c21 0 47 3 66 14l-11 -82c-23 -12 -66 -16 -84 -16c-139 0 -129 85 -118 161l35 247h-104l11 78h104l18 133h90l-18 -133h129z" />
    <glyph glyph-name="u" unicode="u" 
d="M555 474l-67 -474h-90l10 73h-2c-30 -50 -95 -85 -168 -85c-92 0 -164 55 -146 181l43 305h90l-40 -280c-12 -89 34 -122 91 -122c75 0 139 48 154 158l35 244h90z" />
    <glyph glyph-name="v" unicode="v" horiz-adv-x="500" 
d="M204 0l-126 474h104l91 -363l187 363h96l-253 -474h-99z" />
    <glyph glyph-name="w" unicode="w" horiz-adv-x="759" 
d="M167 0l-89 474h101l57 -354h2l163 354h95l70 -354h2l152 354h95l-220 -474h-91l-75 354h-2l-163 -354h-97z" />
    <glyph glyph-name="x" unicode="x" horiz-adv-x="519" 
d="M6 0l228 253l-137 221h116l91 -168l137 168h109l-193 -221l156 -253h-116l-112 199l-168 -199h-111z" />
    <glyph glyph-name="y" unicode="y" horiz-adv-x="500" 
d="M208 -3l-130 477h104l89 -370h2l186 370h97l-306 -576c-44 -82 -83 -138 -182 -138c-27 0 -54 3 -78 13l23 82c16 -7 34 -11 52 -11c57 0 78 31 103 78z" />
    <glyph glyph-name="z" unicode="z" horiz-adv-x="463" 
d="M35 0l11 81l314 315h-260l11 78h370l-12 -80l-315 -316h285l-11 -78h-393z" />
    <glyph glyph-name="braceleft" unicode="{" horiz-adv-x="333" 
d="M407 732l-10 -72h-45c-39 0 -57 -44 -63 -87l-22 -151c-10 -93 -79 -127 -102 -133l-1 -3c23 -3 83 -32 65 -134l-21 -150c-5 -41 0 -86 39 -86h45l-10 -72h-75c-50 0 -98 46 -83 153l18 134c8 73 -22 117 -67 117l11 78c45 0 87 44 100 117l22 158c12 85 74 131 124 131
h75z" />
    <glyph glyph-name="bar" unicode="|" horiz-adv-x="375" 
d="M201 831h74v-1107h-74v1107z" />
    <glyph glyph-name="braceright" unicode="}" horiz-adv-x="333" 
d="M7 -156l10 72h45c39 0 57 44 63 87l22 151c10 93 78 127 102 133l1 3c-23 3 -83 32 -65 134l21 150c5 41 0 86 -39 86h-45l10 72h75c50 0 98 -46 83 -153l-18 -134c-11 -73 22 -117 67 -117l-11 -78c-45 0 -90 -44 -100 -117l-23 -158c-11 -85 -73 -131 -123 -131h-75z
" />
    <glyph glyph-name="asciitilde" unicode="~" horiz-adv-x="666" 
d="M583 378l31 -62c-49 -68 -96 -88 -140 -88c-39 0 -75 18 -111 36c-35 18 -69 36 -101 36c-43 0 -72 -38 -94 -72l-31 62c38 52 81 88 145 88c40 0 76 -18 108 -36c33 -18 63 -37 94 -37c32 0 63 18 99 73z" />
    <glyph glyph-name="exclamdown" unicode="&#xa1;" horiz-adv-x="278" 
d="M62 -222l71 504h96l-71 -504h-96zM265 426c-5 -36 -39 -66 -75 -66s-62 30 -57 66s39 66 75 66s62 -30 57 -66z" />
    <glyph glyph-name="cent" unicode="&#xa2;" 
d="M399 408l-48 -342c42 1 81 19 114 52l50 -58c-45 -44 -107 -67 -175 -72l-9 -66h-54l9 66c-131 13 -199 118 -181 249c19 135 116 230 251 249l10 66h54l-10 -66c63 -3 123 -29 157 -76l-74 -59c-20 30 -56 56 -94 57zM297 66l48 342c-84 -13 -138 -88 -149 -169
c-12 -82 23 -158 101 -173z" />
    <glyph glyph-name="sterling" unicode="&#xa3;" 
d="M488 400l-10 -72h-162l-34 -244h246l-12 -84h-444l12 84h102l34 244h-96l10 72h96l14 100c17 116 105 220 251 220c63 0 121 -18 160 -62l-70 -70c-26 29 -59 48 -92 48c-70 0 -140 -43 -156 -160l-11 -76h162z" />
    <glyph glyph-name="fraction" unicode="&#x2044;" horiz-adv-x="167" 
d="M433 708l-543 -740l-56 32l543 740z" />
    <glyph glyph-name="yen" unicode="&#xa5;" 
d="M236 0l26 186h-171l9 66h171l8 53l-13 28h-154l9 66h114l-140 309h100l134 -316l230 316h102l-230 -309h116l-9 -66h-154l-21 -28l-8 -53h171l-9 -66h-171l-26 -186h-84z" />
    <glyph glyph-name="florin" unicode="&#x192;" 
d="M509 425l-10 -72h-134l-125 -368c-26 -78 -94 -129 -175 -129c-38 0 -68 11 -94 25l48 71c20 -8 38 -12 53 -12c58 0 77 51 89 89l109 324h-108l10 72h122l47 141c30 92 99 154 174 154c43 0 85 -7 114 -24l-51 -75c-13 10 -27 15 -56 15c-34 0 -75 -25 -99 -100
l-34 -111h120z" />
    <glyph glyph-name="section" unicode="&#xa7;" 
d="M571 626l-90 -46c-12 42 -47 61 -93 62c-52 0 -102 -24 -110 -78c-16 -118 281 -105 255 -285c-8 -58 -46 -104 -101 -131c37 -28 55 -69 48 -121c-16 -115 -129 -171 -234 -171c-88 0 -163 36 -187 121l93 41c10 -55 56 -78 113 -78c51 0 104 25 113 87
c14 103 -279 112 -258 266c11 80 58 123 119 151c-44 27 -70 65 -63 118c15 108 127 164 226 164c72 0 146 -29 169 -100zM373 362l-74 38c-38 -14 -79 -35 -85 -79c-8 -61 44 -81 84 -102l72 -37c33 19 67 53 72 88c7 49 -35 73 -69 92z" />
    <glyph glyph-name="currency" unicode="&#xa4;" 
d="M99 555l65 56l42 -48c52 33 106 49 158 49s103 -16 144 -49l56 48l49 -56l-56 -49c27 -45 35 -98 28 -151c-8 -53 -31 -106 -70 -151l42 -49l-65 -57l-42 49c-49 -33 -104 -49 -158 -49c-53 0 -104 17 -144 49l-56 -49l-49 57l56 49c-26 44 -36 98 -28 151
c7 54 32 107 70 151zM149 355c-14 -99 55 -179 154 -179s190 80 204 179s-55 179 -154 179s-190 -80 -204 -179z" />
    <glyph glyph-name="quotesingle" unicode="'" horiz-adv-x="278" 
d="M278 708l-35 -246h-78l35 246h78z" />
    <glyph glyph-name="quotedblleft" unicode="&#x201c;" horiz-adv-x="519" 
d="M354 708l-104 -246h-97l119 246h82zM531 708l-104 -246h-97l119 246h82z" />
    <glyph glyph-name="guillemotleft" unicode="&#xab;" horiz-adv-x="500" 
d="M197 27l-116 216l176 216l56 -41l-142 -175l94 -175zM395 27l-116 216l176 216l56 -41l-142 -175l94 -175z" />
    <glyph glyph-name="guilsinglleft" unicode="&#x2039;" horiz-adv-x="315" 
d="M204 27l-116 216l176 216l56 -41l-142 -175l94 -175z" />
    <glyph glyph-name="guilsinglright" unicode="&#x203a;" horiz-adv-x="315" 
d="M120 27l-56 41l141 175l-93 175l68 41l115 -216z" />
    <glyph glyph-name="endash" unicode="&#x2013;" horiz-adv-x="500" 
d="M540 282l-11 -78h-500l11 78h500z" />
    <glyph glyph-name="dagger" unicode="&#x2020;" 
d="M215 -126l78 553h-198l11 78h198l29 203h90l-29 -203h198l-11 -78h-198l-78 -553h-90z" />
    <glyph glyph-name="daggerdbl" unicode="&#x2021;" 
d="M215 -126l27 192h-192l11 78h192l43 306h-192l11 78h192l26 180h90l-26 -180h192l-11 -78h-192l-43 -306h192l-11 -78h-192l-27 -192h-90z" />
    <glyph glyph-name="periodcentered" unicode="&#xb7;" horiz-adv-x="278" 
d="M116 303c5 36 39 66 75 66s62 -30 57 -66s-40 -66 -76 -66s-61 30 -56 66z" />
    <glyph glyph-name="paragraph" unicode="&#xb6;" horiz-adv-x="600" 
d="M242 -126l63 444c-122 0 -198 81 -183 185c18 130 116 205 257 205h249l-118 -834h-78l108 768h-112l-108 -768h-78z" />
    <glyph glyph-name="bullet" unicode="&#x2022;" horiz-adv-x="500" 
d="M123 354c14 98 104 177 202 177s166 -79 152 -177s-104 -177 -202 -177s-166 79 -152 177z" />
    <glyph glyph-name="quotesinglbase" unicode="&#x201a;" horiz-adv-x="278" 
d="M238 114l-119 -246h-82l104 246h97z" />
    <glyph glyph-name="quotedblbase" unicode="&#x201e;" horiz-adv-x="519" 
d="M270 114l-119 -246h-82l104 246h97zM447 114l-119 -246h-82l104 246h97z" />
    <glyph glyph-name="quotedblright" unicode="&#x201d;" horiz-adv-x="519" 
d="M354 708l-119 -246h-82l104 246h97zM531 708l-119 -246h-82l104 246h97z" />
    <glyph glyph-name="guillemotright" unicode="&#xbb;" horiz-adv-x="500" 
d="M372 459l115 -216l-175 -216l-56 41l141 175l-93 175zM174 459l115 -216l-175 -216l-56 41l141 175l-93 175z" />
    <glyph glyph-name="ellipsis" unicode="&#x2026;" horiz-adv-x="1000" 
d="M166 -6c-36 0 -62 30 -57 66s40 66 76 66s61 -30 56 -66s-39 -66 -75 -66zM499 -6c-36 0 -62 30 -57 66s40 66 76 66s61 -30 56 -66s-39 -66 -75 -66zM832 -6c-36 0 -62 30 -57 66s40 66 76 66s61 -30 56 -66s-39 -66 -75 -66z" />
    <glyph glyph-name="perthousand" unicode="&#x2030;" horiz-adv-x="1056" 
d="M504 -18c-90 0 -151 73 -139 163c13 90 95 162 185 162s153 -72 140 -162c-12 -90 -96 -163 -186 -163zM515 54c50 0 96 41 103 91s-28 90 -78 90s-96 -40 -103 -90s28 -91 78 -91zM731 145c13 90 95 162 185 162s153 -72 140 -162c-12 -90 -96 -163 -186 -163
s-151 73 -139 163zM881 54c50 0 96 41 103 91s-28 90 -78 90s-96 -40 -103 -90s28 -91 78 -91zM98 558c13 90 95 162 185 162s153 -72 140 -162c-12 -90 -95 -163 -185 -163s-152 73 -140 163zM170 558c-7 -50 28 -91 78 -91s96 41 103 91s-28 90 -78 90s-96 -40 -103 -90z
M698 710l-547 -741l-58 31l549 740z" />
    <glyph glyph-name="questiondown" unicode="&#xbf;" horiz-adv-x="500" 
d="M234 288h96l-8 -61c-10 -73 -31 -88 -90 -138c-48 -41 -103 -79 -111 -139c-9 -61 32 -106 91 -106c65 0 115 46 132 112l100 -10c-33 -116 -129 -186 -246 -186c-112 0 -190 67 -174 185c7 51 29 94 59 120l80 71c46 41 57 52 65 108zM369 426c-5 -36 -39 -66 -75 -66
s-62 30 -57 66s39 66 75 66s62 -30 57 -66z" />
    <glyph glyph-name="grave" unicode="`" horiz-adv-x="240" 
d="M182 708l83 -144h-83l-128 144h128z" />
    <glyph glyph-name="acute" unicode="&#xb4;" horiz-adv-x="240" 
d="M133 564l125 144h128l-170 -144h-83z" />
    <glyph glyph-name="circumflex" unicode="&#x2c6;" horiz-adv-x="240" 
d="M364 564h-91l-60 96l-88 -96h-91l133 144h106z" />
    <glyph glyph-name="tilde" unicode="&#x2dc;" horiz-adv-x="240" 
d="M81 576h-48c16 52 57 104 116 104c30 0 55 -12 80 -23c19 -8 31 -17 52 -17c27 0 45 20 55 44h48c-15 -51 -49 -104 -108 -104c-28 0 -55 11 -79 21c-18 8 -40 19 -63 19c-25 0 -43 -22 -53 -44z" />
    <glyph glyph-name="macron" unicode="&#xaf;" horiz-adv-x="240" 
d="M358 666l-10 -66h-288l10 66h288z" />
    <glyph glyph-name="breve" unicode="&#x2d8;" horiz-adv-x="240" 
d="M62 702h55c1 -51 44 -72 93 -72s96 21 113 72h53c-19 -91 -89 -138 -177 -138s-144 47 -137 138z" />
    <glyph glyph-name="dotaccent" unicode="&#x2d9;" horiz-adv-x="240" 
d="M203 594c-36 0 -58 27 -53 63c5 33 39 57 70 57s59 -24 54 -57c-5 -36 -35 -63 -71 -63z" />
    <glyph glyph-name="dieresis" unicode="&#xa8;" horiz-adv-x="240" 
d="M118 714c31 0 59 -24 54 -57c-5 -36 -35 -63 -71 -63s-58 27 -53 63c5 33 39 57 70 57zM322 714c31 0 59 -24 54 -57c-5 -36 -35 -63 -71 -63s-58 27 -53 63c5 33 39 57 70 57z" />
    <glyph glyph-name="ring" unicode="&#x2da;" horiz-adv-x="240" 
d="M109 651c8 56 62 99 116 99c56 0 97 -43 89 -98c-7 -56 -60 -99 -116 -99c-54 0 -96 43 -89 98zM271 651c5 33 -19 57 -51 57s-64 -24 -69 -57c-4 -32 22 -56 53 -56s63 24 67 56z" />
    <glyph glyph-name="cedilla" unicode="&#xb8;" horiz-adv-x="240" 
d="M-24 -205l25 40c23 -10 50 -15 76 -15c24 0 62 8 67 42c7 51 -51 44 -90 33l-18 18l73 87h49l-53 -61h29c46 1 89 -22 82 -72c-10 -71 -81 -95 -138 -95c-36 0 -71 7 -102 23z" />
    <glyph glyph-name="hungarumlaut" unicode="&#x2dd;" horiz-adv-x="240" 
d="M29 564l125 144h127l-170 -144h-82zM198 564l125 144h127l-170 -144h-82z" />
    <glyph glyph-name="ogonek" unicode="&#x2db;" horiz-adv-x="240" 
d="M173 -142l16 -44c-31 -24 -65 -35 -96 -35c-52 0 -93 30 -87 85c8 56 66 110 113 143h54c-33 -28 -87 -82 -93 -125c-1 -32 19 -43 43 -43c17 0 35 8 50 19z" />
    <glyph glyph-name="caron" unicode="&#x2c7;" horiz-adv-x="240" 
d="M146 564l-91 144h87l64 -96l88 96h91l-133 -144h-106z" />
    <glyph glyph-name="emdash" unicode="&#x2014;" horiz-adv-x="1000" 
d="M1040 282l-11 -78h-1000l11 78h1000z" />
    <glyph glyph-name="AE" unicode="&#xc6;" horiz-adv-x="963" 
d="M-8 0l558 708h456l-13 -90h-295l-30 -211h277l-12 -90h-277l-32 -227h307l-13 -90h-403l24 172h-304l-125 -172h-118zM300 262h252l50 356h-19z" />
    <glyph glyph-name="ordfeminine" unicode="&#xaa;" horiz-adv-x="337" 
d="M368 425h-66l6 44l-2 1c-23 -38 -60 -51 -107 -51c-54 0 -102 28 -94 86c14 99 135 103 210 103h12l2 10c4 26 -17 48 -61 48c-33 0 -67 -11 -94 -33l-29 45c36 28 85 42 129 42c116 0 128 -48 121 -99zM321 560h-2c-57 0 -140 0 -147 -51c-4 -28 23 -36 54 -36
c56 0 86 28 92 68z" />
    <glyph glyph-name="Lslash" unicode="&#x141;" horiz-adv-x="519" 
d="M91 0l29 209l-80 -63l12 89l81 62l58 411h96l-47 -328l243 188l-13 -89l-242 -187l-28 -202h325l-13 -90h-421z" />
    <glyph glyph-name="Oslash" unicode="&#xd8;" horiz-adv-x="832" 
d="M697 540l-433 -409c40 -37 95 -59 162 -59c162 0 285 127 307 282c10 71 -3 136 -36 186zM231 173l432 407c-40 35 -93 56 -158 56c-162 0 -284 -127 -306 -282c-10 -69 2 -132 32 -181zM94 -30l-38 38l98 93c-50 66 -71 154 -57 253c29 210 205 372 421 372
c89 0 164 -28 219 -76l96 90l37 -38l-96 -90c52 -65 75 -156 61 -258c-30 -210 -206 -372 -422 -372c-92 0 -167 29 -222 79z" />
    <glyph glyph-name="OE" unicode="&#x152;" horiz-adv-x="981" 
d="M936 90l-13 -90h-456c-261 0 -388 148 -359 354c30 214 204 354 459 354h444l-13 -90h-294l-30 -211h276l-12 -90h-276l-32 -227h306zM534 90l74 528h-61c-196 0 -317 -122 -337 -264c-21 -150 67 -264 263 -264h61z" />
    <glyph glyph-name="ordmasculine" unicode="&#xba;" horiz-adv-x="386" 
d="M294 720c100 0 156 -60 143 -151s-85 -150 -185 -150s-156 59 -143 150s85 151 185 151zM286 660c-59 0 -97 -36 -105 -91s20 -90 79 -90s97 35 105 90s-20 91 -79 91z" />
    <glyph glyph-name="ae" unicode="&#xe6;" horiz-adv-x="852" 
d="M848 246l-6 -42h-353c-11 -76 31 -144 122 -144c57 0 104 32 134 75l65 -55c-64 -64 -126 -98 -212 -98c-76 0 -139 26 -171 97c-52 -60 -120 -97 -208 -97c-128 0 -172 78 -161 153c16 112 123 141 217 141h140l2 15c9 68 -24 123 -102 123c-55 0 -95 -20 -141 -54
l-48 57c56 45 131 69 198 69c65 0 130 -20 160 -76c36 35 89 76 176 76c181 0 199 -159 188 -240zM405 204h-142c-69 0 -102 -22 -109 -69c-6 -46 34 -81 88 -81c74 0 149 51 161 136zM499 276h257c8 73 -17 132 -108 132c-84 0 -139 -59 -149 -132z" />
    <glyph glyph-name="dotlessi" unicode="&#x131;" horiz-adv-x="240" 
d="M75 0l67 474h90l-67 -474h-90z" />
    <glyph glyph-name="lslash" unicode="&#x142;" horiz-adv-x="240" 
d="M75 0l42 298l-89 -78l13 90l89 78l51 368h90l-39 -278l89 77l-13 -90l-88 -77l-55 -388h-90z" />
    <glyph glyph-name="oslash" unicode="&#xf8;" horiz-adv-x="594" 
d="M190 135l261 232c-23 22 -55 35 -97 35c-96 0 -166 -69 -180 -165c-5 -40 0 -75 16 -102zM74 -32l-32 36l76 68c-33 42 -49 101 -40 165c20 138 146 249 287 249c63 0 117 -22 154 -58l86 75l31 -36l-86 -76c28 -42 40 -96 32 -154c-19 -138 -146 -249 -287 -249
c-56 0 -105 18 -143 49zM477 326l-255 -227c21 -18 50 -27 85 -27c96 0 166 69 179 165c5 33 2 64 -9 89z" />
    <glyph glyph-name="oe" unicode="&#x153;" horiz-adv-x="926" 
d="M813 135l67 -49c-55 -66 -127 -98 -213 -98c-77 0 -150 27 -181 92c-30 -34 -85 -92 -208 -92c-153 0 -226 108 -206 249c20 143 135 249 281 249c82 0 140 -29 180 -91c37 42 100 91 199 91c135 0 210 -97 190 -238l-6 -44h-359c-10 -70 22 -138 123 -138
c57 0 101 27 133 69zM567 276h263c7 67 -25 138 -110 138s-145 -79 -153 -138zM471 237c12 86 -20 171 -126 171c-102 0 -163 -76 -177 -171c-13 -93 27 -171 121 -171c122 0 170 85 182 171z" />
    <glyph glyph-name="germandbls" unicode="&#xdf;" horiz-adv-x="611" 
d="M68 0l72 509c19 141 74 259 261 259c111 0 194 -63 178 -181c-12 -82 -62 -135 -133 -155l-1 -2c78 -12 160 -75 141 -210c-20 -143 -135 -232 -275 -232c-24 0 -47 3 -69 9l11 81c16 -4 34 -6 52 -6c98 0 172 57 186 156c15 106 -54 155 -152 155h-14l12 84h16
c68 0 119 42 128 109c11 81 -44 108 -97 108c-100 0 -140 -70 -153 -164l-73 -520h-90z" />
    <glyph glyph-name="onesuperior" unicode="&#xb9;" horiz-adv-x="361" 
d="M195 289l50 359l-95 -72l-36 46l142 98h71l-60 -431h-72z" />
    <glyph glyph-name="logicalnot" unicode="&#xac;" horiz-adv-x="666" 
d="M659 420l-39 -279h-78l28 201h-456l11 78h534z" />
    <glyph glyph-name="mu" unicode="&#xb5;" 
d="M36 -228l99 702h90l-40 -280c-12 -89 34 -122 91 -122c75 0 139 48 154 158l35 244h90l-67 -474h-90l10 73h-2c-30 -50 -95 -85 -168 -85c-30 0 -57 6 -79 18l-33 -234h-90z" />
    <glyph glyph-name="trademark" unicode="&#x2122;" horiz-adv-x="1000" 
d="M200 296l48 346h-124l10 66h326l-10 -66h-124l-48 -346h-78zM481 296l58 412h119l66 -316h3l156 316h119l-58 -412h-78l48 344h-2l-168 -344h-63l-72 344h-2l-48 -344h-78z" />
    <glyph glyph-name="Eth" unicode="&#xd0;" horiz-adv-x="741" 
d="M75 0l47 336h-72l10 66h72l43 306h247c299 0 340 -223 322 -354c-26 -181 -185 -354 -438 -354h-231zM218 336l-34 -246h121c162 0 312 89 337 264c12 90 -10 264 -240 264h-144l-30 -216h234l-10 -66h-234z" />
    <glyph glyph-name="onehalf" unicode="&#xbd;" horiz-adv-x="834" 
d="M199 289l50 359l-95 -72l-36 46l142 98h71l-60 -431h-72zM494 0l11 76l201 160c23 18 51 42 55 73c5 35 -21 56 -57 56c-38 0 -68 -23 -76 -59l-83 6c18 78 86 119 169 119s143 -39 132 -120c-8 -53 -43 -89 -89 -124l-158 -121h213l-9 -66h-309zM140 0l543 740l56 -32
l-543 -740z" />
    <glyph glyph-name="plusminus" unicode="&#xb1;" horiz-adv-x="666" 
d="M110 315l11 78h228l23 163h78l-23 -163h228l-11 -78h-228l-21 -150h-78l21 150h-228zM73 51l11 78h534l-11 -78h-534z" />
    <glyph glyph-name="Thorn" unicode="&#xde;" horiz-adv-x="593" 
d="M91 0l100 708h96l-21 -145h153c181 0 212 -109 199 -198c-12 -89 -74 -198 -255 -198h-153l-23 -167h-96zM254 479l-32 -228h126c76 0 155 18 168 114c14 96 -60 114 -136 114h-126z" />
    <glyph glyph-name="onequarter" unicode="&#xbc;" horiz-adv-x="834" 
d="M673 0l13 94h-196l8 58l223 279h79l-39 -271h62l-9 -66h-62l-13 -94h-66zM689 160l27 187h-2l-143 -187h118zM152 0l543 740l56 -32l-543 -740zM201 289l50 359l-95 -72l-36 46l142 98h71l-60 -431h-72z" />
    <glyph glyph-name="divide" unicode="&#xf7;" horiz-adv-x="666" 
d="M114 341h534l-11 -78h-534zM333 470c5 36 39 66 75 66s62 -30 57 -66s-39 -66 -75 -66s-62 30 -57 66zM286 134c5 36 39 66 75 66s62 -30 57 -66s-39 -66 -75 -66s-62 30 -57 66z" />
    <glyph glyph-name="brokenbar" unicode="&#xa6;" horiz-adv-x="374" 
d="M201 748h73v-388h-73v388zM201 194h73v-387h-73v387z" />
    <glyph glyph-name="degree" unicode="&#xb0;" horiz-adv-x="400" 
d="M131 571c12 82 88 149 170 149s140 -67 128 -149c-11 -82 -88 -149 -170 -149s-139 67 -128 149zM197 571c-6 -46 26 -83 72 -83s88 37 94 83c7 46 -25 83 -71 83s-88 -37 -95 -83z" />
    <glyph glyph-name="thorn" unicode="&#xfe;" horiz-adv-x="611" 
d="M36 -228l138 984h90l-49 -350h2c39 49 108 80 176 80c146 0 226 -107 206 -249c-19 -140 -129 -249 -276 -249c-64 0 -126 29 -153 80h-2l-42 -296h-90zM324 72c96 0 166 69 179 165c14 96 -36 165 -132 165s-166 -69 -180 -165c-13 -96 37 -165 133 -165z" />
    <glyph glyph-name="threequarters" unicode="&#xbe;" horiz-adv-x="834" 
d="M693 0l13 94h-196l8 58l223 279h79l-39 -271h62l-9 -66h-62l-13 -94h-66zM715 160l27 187h-2l-143 -187h118zM192 0l543 740l56 -32l-543 -740zM206 477l9 66h18c45 0 91 6 98 57c5 32 -19 54 -57 54c-32 0 -60 -16 -75 -45l-81 20c29 63 93 91 161 91
c79 0 142 -38 131 -112c-6 -46 -41 -85 -91 -96v-2c57 -7 82 -51 74 -103c-11 -80 -90 -124 -172 -124c-76 0 -134 29 -144 99l86 20c5 -33 25 -53 67 -53c41 0 81 26 86 64c8 55 -45 65 -93 64h-17z" />
    <glyph glyph-name="twosuperior" unicode="&#xb2;" horiz-adv-x="361" 
d="M67 289l10 76l202 160c22 18 51 42 55 73c5 35 -21 56 -57 56c-38 0 -68 -23 -76 -59l-84 6c18 78 86 119 169 119s144 -39 132 -120c-7 -53 -42 -89 -88 -124l-158 -121h213l-9 -66h-309z" />
    <glyph glyph-name="registered" unicode="&#xae;" horiz-adv-x="800" 
d="M277 144l60 425h164c102 0 144 -46 132 -128c-10 -74 -59 -110 -118 -117l85 -180h-82l-81 174h-57l-25 -174h-78zM406 503l-17 -119h57c48 0 101 3 109 60s-44 60 -92 59h-57zM78 354c29 205 219 372 424 372s349 -167 320 -372s-220 -372 -425 -372s-348 167 -319 372z
M144 354c-24 -169 94 -306 263 -306s325 137 349 306s-94 306 -263 306s-325 -137 -349 -306z" />
    <glyph glyph-name="minus" unicode="&#x2212;" horiz-adv-x="666" 
d="M114 342h534l-11 -78h-534z" />
    <glyph glyph-name="eth" unicode="&#xf0;" horiz-adv-x="594" 
d="M529 756l46 -44l-120 -55c88 -110 154 -232 132 -388c-24 -169 -133 -281 -292 -281c-141 0 -236 111 -217 249c20 138 146 249 287 249c44 0 91 -13 118 -50l3 2c-28 66 -72 126 -119 180l-114 -52l-41 46l113 53l-75 71l86 46l78 -78zM174 237
c-13 -96 37 -165 133 -165s166 69 179 165c14 96 -36 165 -132 165s-166 -69 -180 -165z" />
    <glyph glyph-name="multiply" unicode="&#xd7;" horiz-adv-x="666" 
d="M81 92l240 211l-183 212l63 55l182 -212l243 212l46 -55l-241 -212l182 -212l-64 -55l-181 212l-241 -212z" />
    <glyph glyph-name="threesuperior" unicode="&#xb3;" horiz-adv-x="361" 
d="M207 477l9 66h18c45 0 91 6 98 57c5 32 -19 54 -57 54c-32 0 -60 -16 -75 -45l-81 20c29 63 93 91 161 91c79 0 142 -38 131 -112c-6 -46 -41 -85 -91 -96v-2c57 -7 82 -51 74 -103c-11 -80 -90 -124 -172 -124c-76 0 -134 29 -144 99l86 20c5 -33 25 -53 67 -53
c41 0 81 26 86 64c8 55 -45 65 -93 64h-17z" />
    <glyph glyph-name="copyright" unicode="&#xa9;" horiz-adv-x="800" 
d="M78 354c29 205 219 372 424 372s349 -167 320 -372s-220 -372 -425 -372s-348 167 -319 372zM552 286h77c-34 -95 -112 -157 -208 -157c-139 0 -209 93 -190 228c19 137 110 228 251 228c99 0 166 -52 168 -153h-77c-6 49 -34 81 -100 81c-95 0 -150 -59 -164 -154
c-12 -87 31 -158 122 -158c64 0 103 33 121 85zM144 354c-24 -169 94 -306 263 -306s325 137 349 306s-94 306 -263 306s-325 -137 -349 -306z" />
    <glyph glyph-name="Aacute" unicode="&#xc1;" horiz-adv-x="704" 
d="M1 0l412 708h87l203 -708h-112l-46 175h-337l-95 -175h-112zM253 259h268l-86 325h-2zM391 748l124 144h128l-169 -144h-83z" />
    <glyph glyph-name="Acircumflex" unicode="&#xc2;" horiz-adv-x="704" 
d="M1 0l412 708h87l203 -708h-112l-46 175h-337l-95 -175h-112zM253 259h268l-86 325h-2zM622 748h-91l-60 96l-88 -96h-91l132 144h106z" />
    <glyph glyph-name="Adieresis" unicode="&#xc4;" horiz-adv-x="704" 
d="M1 0l412 708h87l203 -708h-112l-46 175h-337l-95 -175h-112zM253 259h268l-86 325h-2zM376 898c31 0 59 -24 54 -57c-5 -36 -35 -63 -71 -63s-58 27 -53 63c5 33 39 57 70 57zM580 898c31 0 59 -24 54 -57c-5 -36 -35 -63 -71 -63s-58 27 -53 63c5 33 39 57 70 57z" />
    <glyph glyph-name="Agrave" unicode="&#xc0;" horiz-adv-x="704" 
d="M1 0l412 708h87l203 -708h-112l-46 175h-337l-95 -175h-112zM253 259h268l-86 325h-2zM439 892l84 -144h-83l-129 144h128z" />
    <glyph glyph-name="Aring" unicode="&#xc5;" horiz-adv-x="704" 
d="M1 0l412 708h87l203 -708h-112l-46 175h-337l-95 -175h-112zM253 259h268l-86 325h-2zM366 825c8 56 62 99 116 99c56 0 97 -43 88 -98c-7 -56 -60 -99 -116 -99c-54 0 -96 43 -88 98zM528 825c5 33 -20 57 -52 57s-63 -24 -68 -57c-5 -32 21 -56 52 -56s63 24 68 56z
" />
    <glyph glyph-name="Atilde" unicode="&#xc3;" horiz-adv-x="704" 
d="M1 0l412 708h87l203 -708h-112l-46 175h-337l-95 -175h-112zM253 259h268l-86 325h-2zM339 760h-48c16 52 56 104 115 104c30 0 56 -12 81 -23c19 -8 31 -17 52 -17c27 0 45 20 55 44h48c-15 -51 -50 -104 -109 -104c-28 0 -54 11 -78 21c-19 8 -40 19 -63 19
c-25 0 -43 -22 -53 -44z" />
    <glyph glyph-name="Ccedilla" unicode="&#xc7;" horiz-adv-x="704" 
d="M751 616l-89 -61c-33 52 -95 81 -160 81c-159 0 -281 -127 -304 -288c-21 -149 60 -276 225 -276c81 0 148 36 198 95l73 -61c-25 -29 -124 -124 -286 -124c-4 0 -8 0 -12 1l-39 -44h29c46 1 89 -22 82 -72c-10 -71 -81 -95 -138 -95c-36 0 -71 7 -102 23l25 40
c23 -10 50 -15 76 -15c24 0 62 8 67 42c7 51 -51 44 -90 33l-18 18l62 74c-186 29 -277 199 -254 361c31 220 204 378 422 378c93 0 186 -35 233 -110z" />
    <glyph glyph-name="Eacute" unicode="&#xc9;" horiz-adv-x="611" 
d="M91 0l100 708h457l-13 -90h-361l-30 -211h336l-12 -90h-336l-32 -227h379l-13 -90h-475zM345 748l124 144h128l-169 -144h-83z" />
    <glyph glyph-name="Ecircumflex" unicode="&#xca;" horiz-adv-x="611" 
d="M91 0l100 708h457l-13 -90h-361l-30 -211h336l-12 -90h-336l-32 -227h379l-13 -90h-475zM576 748h-91l-60 96l-88 -96h-91l132 144h106z" />
    <glyph glyph-name="Edieresis" unicode="&#xcb;" horiz-adv-x="611" 
d="M91 0l100 708h457l-13 -90h-361l-30 -211h336l-12 -90h-336l-32 -227h379l-13 -90h-475zM330 898c31 0 59 -24 54 -57c-5 -36 -35 -63 -71 -63s-58 27 -53 63c5 33 39 57 70 57zM534 898c31 0 59 -24 54 -57c-5 -36 -35 -63 -71 -63s-58 27 -53 63c5 33 39 57 70 57z" />
    <glyph glyph-name="Egrave" unicode="&#xc8;" horiz-adv-x="611" 
d="M91 0l100 708h457l-13 -90h-361l-30 -211h336l-12 -90h-336l-32 -227h379l-13 -90h-475zM393 892l84 -144h-83l-129 144h128z" />
    <glyph glyph-name="Iacute" unicode="&#xcd;" horiz-adv-x="278" 
d="M91 0l100 708h96l-100 -708h-96zM178 748l124 144h128l-169 -144h-83z" />
    <glyph glyph-name="Icircumflex" unicode="&#xce;" horiz-adv-x="278" 
d="M91 0l100 708h96l-100 -708h-96zM409 748h-91l-60 96l-88 -96h-91l132 144h106z" />
    <glyph glyph-name="Idieresis" unicode="&#xcf;" horiz-adv-x="278" 
d="M91 0l100 708h96l-100 -708h-96zM163 898c31 0 59 -24 54 -57c-5 -36 -35 -63 -71 -63s-58 27 -53 63c5 33 39 57 70 57zM367 898c31 0 59 -24 54 -57c-5 -36 -35 -63 -71 -63s-58 27 -53 63c5 33 39 57 70 57z" />
    <glyph glyph-name="Igrave" unicode="&#xcc;" horiz-adv-x="278" 
d="M91 0l100 708h96l-100 -708h-96zM226 892l84 -144h-83l-129 144h128z" />
    <glyph glyph-name="Ntilde" unicode="&#xd1;" horiz-adv-x="796" 
d="M91 0l100 708h126l308 -582h2l82 582h96l-100 -708h-122l-312 582h-2l-82 -582h-96zM385 760h-48c16 52 56 104 115 104c30 0 56 -12 81 -23c19 -8 31 -17 52 -17c27 0 45 20 55 44h48c-15 -51 -50 -104 -109 -104c-28 0 -54 11 -78 21c-19 8 -40 19 -63 19
c-25 0 -43 -22 -53 -44z" />
    <glyph glyph-name="Oacute" unicode="&#xd3;" horiz-adv-x="832" 
d="M413 -18c-216 0 -346 162 -316 372c29 210 205 372 421 372s346 -162 317 -372c-30 -210 -206 -372 -422 -372zM426 72c162 0 285 127 307 282s-66 282 -228 282s-284 -127 -306 -282s65 -282 227 -282zM455 748l124 144h128l-169 -144h-83z" />
    <glyph glyph-name="Ocircumflex" unicode="&#xd4;" horiz-adv-x="832" 
d="M413 -18c-216 0 -346 162 -316 372c29 210 205 372 421 372s346 -162 317 -372c-30 -210 -206 -372 -422 -372zM426 72c162 0 285 127 307 282s-66 282 -228 282s-284 -127 -306 -282s65 -282 227 -282zM686 748h-91l-60 96l-88 -96h-91l132 144h106z" />
    <glyph glyph-name="Odieresis" unicode="&#xd6;" horiz-adv-x="832" 
d="M413 -18c-216 0 -346 162 -316 372c29 210 205 372 421 372s346 -162 317 -372c-30 -210 -206 -372 -422 -372zM426 72c162 0 285 127 307 282s-66 282 -228 282s-284 -127 -306 -282s65 -282 227 -282zM440 898c31 0 59 -24 54 -57c-5 -36 -35 -63 -71 -63
s-58 27 -53 63c5 33 39 57 70 57zM644 898c31 0 59 -24 54 -57c-5 -36 -35 -63 -71 -63s-58 27 -53 63c5 33 39 57 70 57z" />
    <glyph glyph-name="Ograve" unicode="&#xd2;" horiz-adv-x="832" 
d="M413 -18c-216 0 -346 162 -316 372c29 210 205 372 421 372s346 -162 317 -372c-30 -210 -206 -372 -422 -372zM426 72c162 0 285 127 307 282s-66 282 -228 282s-284 -127 -306 -282s65 -282 227 -282zM503 892l84 -144h-83l-129 144h128z" />
    <glyph glyph-name="Otilde" unicode="&#xd5;" horiz-adv-x="832" 
d="M413 -18c-216 0 -346 162 -316 372c29 210 205 372 421 372s346 -162 317 -372c-30 -210 -206 -372 -422 -372zM426 72c162 0 285 127 307 282s-66 282 -228 282s-284 -127 -306 -282s65 -282 227 -282zM403 760h-48c16 52 56 104 115 104c30 0 56 -12 81 -23
c19 -8 31 -17 52 -17c27 0 45 20 55 44h48c-15 -51 -50 -104 -109 -104c-28 0 -54 11 -78 21c-19 8 -40 19 -63 19c-25 0 -43 -22 -53 -44z" />
    <glyph glyph-name="Scaron" unicode="&#x160;" 
d="M44 80l89 68c26 -52 82 -76 139 -76c63 0 147 40 158 118c23 163 -341 62 -302 338c12 83 98 198 268 198c77 0 149 -16 193 -81l-88 -71c-19 37 -63 62 -118 62c-106 0 -147 -64 -153 -108c-25 -179 339 -72 303 -327c-19 -137 -141 -219 -277 -219
c-91 0 -173 31 -212 98zM330 748l-92 144h87l65 -96l87 96h91l-132 -144h-106z" />
    <glyph glyph-name="Uacute" unicode="&#xda;" horiz-adv-x="704" 
d="M178 708h96l-61 -434c-13 -88 15 -202 149 -202s194 114 207 202l61 434h96l-64 -449c-23 -164 -158 -277 -313 -277s-258 113 -235 277zM391 748l124 144h128l-169 -144h-83z" />
    <glyph glyph-name="Ucircumflex" unicode="&#xdb;" horiz-adv-x="704" 
d="M178 708h96l-61 -434c-13 -88 15 -202 149 -202s194 114 207 202l61 434h96l-64 -449c-23 -164 -158 -277 -313 -277s-258 113 -235 277zM622 748h-91l-60 96l-88 -96h-91l132 144h106z" />
    <glyph glyph-name="Udieresis" unicode="&#xdc;" horiz-adv-x="704" 
d="M178 708h96l-61 -434c-13 -88 15 -202 149 -202s194 114 207 202l61 434h96l-64 -449c-23 -164 -158 -277 -313 -277s-258 113 -235 277zM376 898c31 0 59 -24 54 -57c-5 -36 -35 -63 -71 -63s-58 27 -53 63c5 33 39 57 70 57zM580 898c31 0 59 -24 54 -57
c-5 -36 -35 -63 -71 -63s-58 27 -53 63c5 33 39 57 70 57z" />
    <glyph glyph-name="Ugrave" unicode="&#xd9;" horiz-adv-x="704" 
d="M178 708h96l-61 -434c-13 -88 15 -202 149 -202s194 114 207 202l61 434h96l-64 -449c-23 -164 -158 -277 -313 -277s-258 113 -235 277zM439 892l84 -144h-83l-129 144h128z" />
    <glyph glyph-name="Yacute" unicode="&#xdd;" horiz-adv-x="612" 
d="M258 0l42 302l-210 406h123l149 -311l243 311h117l-326 -406l-42 -302h-96zM345 748l124 144h128l-169 -144h-83z" />
    <glyph glyph-name="Ydieresis" unicode="&#x178;" horiz-adv-x="612" 
d="M258 0l42 302l-210 406h123l149 -311l243 311h117l-326 -406l-42 -302h-96zM330 898c31 0 59 -24 54 -57c-5 -36 -35 -63 -71 -63s-58 27 -53 63c5 33 39 57 70 57zM534 898c31 0 59 -24 54 -57c-5 -36 -35 -63 -71 -63s-58 27 -53 63c5 33 39 57 70 57z" />
    <glyph glyph-name="Zcaron" unicode="&#x17d;" horiz-adv-x="593" 
d="M32 0l13 90l477 528h-391l13 90h511l-13 -90l-475 -528h407l-13 -90h-529zM349 748l-92 144h87l65 -96l87 96h91l-132 -144h-106z" />
    <glyph glyph-name="aacute" unicode="&#xe1;" horiz-adv-x="519" 
d="M175 360l-47 56c57 47 132 70 198 70c140 0 188 -76 176 -158l-34 -242c-5 -33 -7 -61 -8 -86h-80c1 24 4 48 7 72h-2c-48 -61 -106 -84 -178 -84c-88 0 -157 50 -144 142c17 122 140 164 284 164h66l3 20c7 49 -22 100 -99 100c-69 0 -106 -29 -142 -54zM404 228h-48
c-85 0 -191 -15 -202 -91c-7 -54 29 -77 91 -77c100 0 146 74 155 138zM273 564l125 144h128l-170 -144h-83z" />
    <glyph glyph-name="acircumflex" unicode="&#xe2;" horiz-adv-x="519" 
d="M175 360l-47 56c57 47 132 70 198 70c140 0 188 -76 176 -158l-34 -242c-5 -33 -7 -61 -8 -86h-80c1 24 4 48 7 72h-2c-48 -61 -106 -84 -178 -84c-88 0 -157 50 -144 142c17 122 140 164 284 164h66l3 20c7 49 -22 100 -99 100c-69 0 -106 -29 -142 -54zM404 228h-48
c-85 0 -191 -15 -202 -91c-7 -54 29 -77 91 -77c100 0 146 74 155 138zM504 564h-91l-60 96l-88 -96h-91l133 144h106z" />
    <glyph glyph-name="adieresis" unicode="&#xe4;" horiz-adv-x="519" 
d="M175 360l-47 56c57 47 132 70 198 70c140 0 188 -76 176 -158l-34 -242c-5 -33 -7 -61 -8 -86h-80c1 24 4 48 7 72h-2c-48 -61 -106 -84 -178 -84c-88 0 -157 50 -144 142c17 122 140 164 284 164h66l3 20c7 49 -22 100 -99 100c-69 0 -106 -29 -142 -54zM404 228h-48
c-85 0 -191 -15 -202 -91c-7 -54 29 -77 91 -77c100 0 146 74 155 138zM258 714c31 0 59 -24 54 -57c-5 -36 -35 -63 -71 -63s-58 27 -53 63c5 33 39 57 70 57zM462 714c31 0 59 -24 54 -57c-5 -36 -35 -63 -71 -63s-58 27 -53 63c5 33 39 57 70 57z" />
    <glyph glyph-name="agrave" unicode="&#xe0;" horiz-adv-x="519" 
d="M175 360l-47 56c57 47 132 70 198 70c140 0 188 -76 176 -158l-34 -242c-5 -33 -7 -61 -8 -86h-80c1 24 4 48 7 72h-2c-48 -61 -106 -84 -178 -84c-88 0 -157 50 -144 142c17 122 140 164 284 164h66l3 20c7 49 -22 100 -99 100c-69 0 -106 -29 -142 -54zM404 228h-48
c-85 0 -191 -15 -202 -91c-7 -54 29 -77 91 -77c100 0 146 74 155 138zM322 708l83 -144h-83l-128 144h128z" />
    <glyph glyph-name="aring" unicode="&#xe5;" horiz-adv-x="519" 
d="M175 360l-47 56c57 47 132 70 198 70c140 0 188 -76 176 -158l-34 -242c-5 -33 -7 -61 -8 -86h-80c1 24 4 48 7 72h-2c-48 -61 -106 -84 -178 -84c-88 0 -157 50 -144 142c17 122 140 164 284 164h66l3 20c7 49 -22 100 -99 100c-69 0 -106 -29 -142 -54zM404 228h-48
c-85 0 -191 -15 -202 -91c-7 -54 29 -77 91 -77c100 0 146 74 155 138zM249 651c8 56 62 99 116 99c56 0 97 -43 89 -98c-7 -56 -60 -99 -116 -99c-54 0 -96 43 -89 98zM411 651c5 33 -19 57 -51 57s-64 -24 -69 -57c-4 -32 22 -56 53 -56s63 24 67 56z" />
    <glyph glyph-name="atilde" unicode="&#xe3;" horiz-adv-x="519" 
d="M175 360l-47 56c57 47 132 70 198 70c140 0 188 -76 176 -158l-34 -242c-5 -33 -7 -61 -8 -86h-80c1 24 4 48 7 72h-2c-48 -61 -106 -84 -178 -84c-88 0 -157 50 -144 142c17 122 140 164 284 164h66l3 20c7 49 -22 100 -99 100c-69 0 -106 -29 -142 -54zM404 228h-48
c-85 0 -191 -15 -202 -91c-7 -54 29 -77 91 -77c100 0 146 74 155 138zM221 576h-48c16 52 57 104 116 104c30 0 55 -12 80 -23c19 -8 31 -17 52 -17c27 0 45 20 55 44h48c-15 -51 -49 -104 -108 -104c-28 0 -55 11 -79 21c-18 8 -40 19 -63 19c-25 0 -43 -22 -53 -44z" />
    <glyph glyph-name="ccedilla" unicode="&#xe7;" horiz-adv-x="482" 
d="M533 410l-77 -62c-28 35 -61 53 -111 53c-98 0 -159 -79 -171 -168c-13 -89 37 -161 130 -161c50 0 88 18 123 53l55 -64c-52 -50 -116 -71 -183 -72l-43 -50h29c46 1 89 -22 82 -72c-10 -71 -81 -95 -138 -95c-36 0 -71 7 -102 23l25 40c23 -10 50 -15 76 -15
c24 0 62 8 67 42c7 51 -51 44 -90 33l-18 18l66 79c-123 15 -194 110 -175 243c21 146 135 250 283 250c69 0 132 -24 172 -75z" />
    <glyph glyph-name="eacute" unicode="&#xe9;" 
d="M545 204h-380c-12 -83 57 -138 140 -138c55 0 99 28 140 71l61 -52c-59 -65 -133 -97 -224 -97c-150 0 -229 108 -209 249c20 142 138 249 280 249c167 0 213 -128 196 -250zM175 276h284c9 79 -27 138 -118 138c-89 0 -157 -75 -166 -138zM291 564l125 144h128
l-170 -144h-83z" />
    <glyph glyph-name="ecircumflex" unicode="&#xea;" 
d="M545 204h-380c-12 -83 57 -138 140 -138c55 0 99 28 140 71l61 -52c-59 -65 -133 -97 -224 -97c-150 0 -229 108 -209 249c20 142 138 249 280 249c167 0 213 -128 196 -250zM175 276h284c9 79 -27 138 -118 138c-89 0 -157 -75 -166 -138zM522 564h-91l-60 96l-88 -96
h-91l133 144h106z" />
    <glyph glyph-name="edieresis" unicode="&#xeb;" 
d="M545 204h-380c-12 -83 57 -138 140 -138c55 0 99 28 140 71l61 -52c-59 -65 -133 -97 -224 -97c-150 0 -229 108 -209 249c20 142 138 249 280 249c167 0 213 -128 196 -250zM175 276h284c9 79 -27 138 -118 138c-89 0 -157 -75 -166 -138zM276 714c31 0 59 -24 54 -57
c-5 -36 -35 -63 -71 -63s-58 27 -53 63c5 33 39 57 70 57zM480 714c31 0 59 -24 54 -57c-5 -36 -35 -63 -71 -63s-58 27 -53 63c5 33 39 57 70 57z" />
    <glyph glyph-name="egrave" unicode="&#xe8;" 
d="M545 204h-380c-12 -83 57 -138 140 -138c55 0 99 28 140 71l61 -52c-59 -65 -133 -97 -224 -97c-150 0 -229 108 -209 249c20 142 138 249 280 249c167 0 213 -128 196 -250zM175 276h284c9 79 -27 138 -118 138c-89 0 -157 -75 -166 -138zM340 708l83 -144h-83l-128 144
h128z" />
    <glyph glyph-name="iacute" unicode="&#xed;" horiz-adv-x="240" 
d="M75 0l67 474h90l-67 -474h-90zM133 564l125 144h128l-170 -144h-83z" />
    <glyph glyph-name="icircumflex" unicode="&#xee;" horiz-adv-x="240" 
d="M75 0l67 474h90l-67 -474h-90zM364 564h-91l-60 96l-88 -96h-91l133 144h106z" />
    <glyph glyph-name="idieresis" unicode="&#xef;" horiz-adv-x="240" 
d="M75 0l67 474h90l-67 -474h-90zM118 714c31 0 59 -24 54 -57c-5 -36 -35 -63 -71 -63s-58 27 -53 63c5 33 39 57 70 57zM322 714c31 0 59 -24 54 -57c-5 -36 -35 -63 -71 -63s-58 27 -53 63c5 33 39 57 70 57z" />
    <glyph glyph-name="igrave" unicode="&#xec;" horiz-adv-x="240" 
d="M75 0l67 474h90l-67 -474h-90zM182 708l83 -144h-83l-128 144h128z" />
    <glyph glyph-name="ntilde" unicode="&#xf1;" 
d="M68 0l67 474h90l-11 -73h2c30 50 95 85 168 85c92 0 165 -55 147 -181l-43 -305h-90l39 280c13 89 -33 122 -90 122c-75 0 -139 -48 -155 -158l-34 -244h-90zM239 576h-48c16 52 57 104 116 104c30 0 55 -12 80 -23c19 -8 31 -17 52 -17c27 0 45 20 55 44h48
c-15 -51 -49 -104 -108 -104c-28 0 -55 11 -79 21c-18 8 -40 19 -63 19c-25 0 -43 -22 -53 -44z" />
    <glyph glyph-name="oacute" unicode="&#xf3;" horiz-adv-x="594" 
d="M174 237c-13 -96 37 -165 133 -165s166 69 179 165c14 96 -36 165 -132 165s-166 -69 -180 -165zM78 237c20 138 146 249 287 249s237 -111 217 -249c-19 -138 -146 -249 -287 -249s-236 111 -217 249zM310 564l125 144h128l-170 -144h-83z" />
    <glyph glyph-name="ocircumflex" unicode="&#xf4;" horiz-adv-x="594" 
d="M174 237c-13 -96 37 -165 133 -165s166 69 179 165c14 96 -36 165 -132 165s-166 -69 -180 -165zM78 237c20 138 146 249 287 249s237 -111 217 -249c-19 -138 -146 -249 -287 -249s-236 111 -217 249zM541 564h-91l-60 96l-88 -96h-91l133 144h106z" />
    <glyph glyph-name="odieresis" unicode="&#xf6;" horiz-adv-x="594" 
d="M174 237c-13 -96 37 -165 133 -165s166 69 179 165c14 96 -36 165 -132 165s-166 -69 -180 -165zM78 237c20 138 146 249 287 249s237 -111 217 -249c-19 -138 -146 -249 -287 -249s-236 111 -217 249zM295 714c31 0 59 -24 54 -57c-5 -36 -35 -63 -71 -63s-58 27 -53 63
c5 33 39 57 70 57zM499 714c31 0 59 -24 54 -57c-5 -36 -35 -63 -71 -63s-58 27 -53 63c5 33 39 57 70 57z" />
    <glyph glyph-name="ograve" unicode="&#xf2;" horiz-adv-x="594" 
d="M174 237c-13 -96 37 -165 133 -165s166 69 179 165c14 96 -36 165 -132 165s-166 -69 -180 -165zM78 237c20 138 146 249 287 249s237 -111 217 -249c-19 -138 -146 -249 -287 -249s-236 111 -217 249zM359 708l83 -144h-83l-128 144h128z" />
    <glyph glyph-name="otilde" unicode="&#xf5;" horiz-adv-x="594" 
d="M174 237c-13 -96 37 -165 133 -165s166 69 179 165c14 96 -36 165 -132 165s-166 -69 -180 -165zM78 237c20 138 146 249 287 249s237 -111 217 -249c-19 -138 -146 -249 -287 -249s-236 111 -217 249zM258 576h-48c16 52 57 104 116 104c30 0 55 -12 80 -23
c19 -8 31 -17 52 -17c27 0 45 20 55 44h48c-15 -51 -49 -104 -108 -104c-28 0 -55 11 -79 21c-18 8 -40 19 -63 19c-25 0 -43 -22 -53 -44z" />
    <glyph glyph-name="scaron" unicode="&#x161;" horiz-adv-x="444" 
d="M447 408l-77 -53c-17 26 -45 47 -90 47c-42 0 -82 -19 -87 -53c-8 -57 72 -65 111 -74c75 -19 131 -49 118 -138c-15 -107 -119 -149 -213 -149c-78 0 -133 20 -171 84l76 56c25 -29 55 -56 107 -56c46 0 99 19 105 60c7 54 -66 64 -104 73c-75 19 -139 44 -126 135
c14 99 111 146 200 146c63 0 125 -22 151 -78zM248 564l-91 144h87l64 -96l88 96h91l-133 -144h-106z" />
    <glyph glyph-name="uacute" unicode="&#xfa;" 
d="M555 474l-67 -474h-90l10 73h-2c-30 -50 -95 -85 -168 -85c-92 0 -164 55 -146 181l43 305h90l-40 -280c-12 -89 34 -122 91 -122c75 0 139 48 154 158l35 244h90zM291 564l125 144h128l-170 -144h-83z" />
    <glyph glyph-name="ucircumflex" unicode="&#xfb;" 
d="M555 474l-67 -474h-90l10 73h-2c-30 -50 -95 -85 -168 -85c-92 0 -164 55 -146 181l43 305h90l-40 -280c-12 -89 34 -122 91 -122c75 0 139 48 154 158l35 244h90zM522 564h-91l-60 96l-88 -96h-91l133 144h106z" />
    <glyph glyph-name="udieresis" unicode="&#xfc;" 
d="M555 474l-67 -474h-90l10 73h-2c-30 -50 -95 -85 -168 -85c-92 0 -164 55 -146 181l43 305h90l-40 -280c-12 -89 34 -122 91 -122c75 0 139 48 154 158l35 244h90zM276 714c31 0 59 -24 54 -57c-5 -36 -35 -63 -71 -63s-58 27 -53 63c5 33 39 57 70 57zM480 714
c31 0 59 -24 54 -57c-5 -36 -35 -63 -71 -63s-58 27 -53 63c5 33 39 57 70 57z" />
    <glyph glyph-name="ugrave" unicode="&#xf9;" 
d="M555 474l-67 -474h-90l10 73h-2c-30 -50 -95 -85 -168 -85c-92 0 -164 55 -146 181l43 305h90l-40 -280c-12 -89 34 -122 91 -122c75 0 139 48 154 158l35 244h90zM340 708l83 -144h-83l-128 144h128z" />
    <glyph glyph-name="yacute" unicode="&#xfd;" horiz-adv-x="500" 
d="M208 -3l-130 477h104l89 -370h2l186 370h97l-306 -576c-44 -82 -83 -138 -182 -138c-27 0 -54 3 -78 13l23 82c16 -7 34 -11 52 -11c57 0 78 31 103 78zM263 564l125 144h128l-170 -144h-83z" />
    <glyph glyph-name="ydieresis" unicode="&#xff;" horiz-adv-x="500" 
d="M208 -3l-130 477h104l89 -370h2l186 370h97l-306 -576c-44 -82 -83 -138 -182 -138c-27 0 -54 3 -78 13l23 82c16 -7 34 -11 52 -11c57 0 78 31 103 78zM248 714c31 0 59 -24 54 -57c-5 -36 -35 -63 -71 -63s-58 27 -53 63c5 33 39 57 70 57zM452 714c31 0 59 -24 54 -57
c-5 -36 -35 -63 -71 -63s-58 27 -53 63c5 33 39 57 70 57z" />
    <glyph glyph-name="zcaron" unicode="&#x17e;" horiz-adv-x="463" 
d="M35 0l11 81l314 315h-260l11 78h370l-12 -80l-315 -316h285l-11 -78h-393zM258 564l-91 144h87l64 -96l88 96h91l-133 -144h-106z" />
    <glyph glyph-name="Delta" unicode="&#x2206;" horiz-adv-x="649" 
d="M30 0l8 57l340 666h101l147 -665l-8 -58h-588zM129 71h407l-86 366c-9 55 -32 141 -37 187h-4c-15 -38 -58 -116 -82 -171z" />
    <glyph glyph-name="Omega" unicode="&#x2126;" horiz-adv-x="716" 
d="M203 71v3c-60 63 -109 169 -89 308c27 194 175 334 348 334c182 0 270 -160 246 -329c-20 -143 -102 -255 -178 -313v-3h148l-10 -71h-245l7 53c80 48 166 156 189 317c17 131 -33 273 -169 273c-129 0 -229 -121 -250 -276c-22 -150 33 -268 99 -314l-7 -53h-246l10 71
h147z" />
    <glyph glyph-name="uni03BC" unicode="&#x3bc;" 
d="M36 -228l99 702h90l-40 -280c-12 -89 34 -122 91 -122c75 0 139 48 154 158l35 244h90l-67 -474h-90l10 73h-2c-30 -50 -95 -85 -168 -85c-30 0 -57 6 -79 18l-33 -234h-90z" />
    <glyph glyph-name="pi" unicode="&#x3c0;" horiz-adv-x="577" 
d="M614 451h-78l-42 -302c-12 -82 -10 -121 -7 -149h-84c-7 18 -8 62 3 142l43 309h-171c-23 -125 -84 -353 -135 -451h-84c53 111 111 321 133 451c-59 0 -87 -4 -109 -12l-5 58c27 17 74 29 152 29h403z" />
    <glyph glyph-name="Euro" unicode="&#x20ac;" 
d="M621 684l-31 -75c-28 23 -72 34 -127 34c-87 0 -160 -52 -204 -160h276l-27 -67h-271c-6 -23 -10 -46 -14 -73l-3 -25c-1 -8 -3 -16 -3 -23h242l-26 -65h-219c2 -112 44 -168 144 -168c56 0 99 24 133 59l42 -49c-41 -47 -113 -84 -190 -84c-143 0 -213 83 -216 242h-72
l28 65h46l3 24l4 27c3 25 7 48 12 70h-66l31 67h57c59 160 176 237 308 237c56 0 111 -15 143 -36z" />
    <glyph glyph-name="afii61289" unicode="&#x2113;" horiz-adv-x="492" 
d="M452 158l34 -36c-58 -89 -131 -129 -209 -129c-116 0 -151 84 -143 182l1 13c-19 -14 -41 -31 -62 -46l-18 49c32 25 62 46 90 70l38 271c25 183 114 246 194 246c87 0 117 -75 104 -167c-18 -126 -116 -245 -256 -366l-5 -36c-13 -104 30 -147 85 -147
c61 0 115 51 147 96zM266 537l-29 -208c96 92 173 188 186 282c8 61 -4 102 -54 102c-36 0 -84 -42 -103 -176z" />
    <glyph glyph-name="estimated" unicode="&#x212e;" horiz-adv-x="984" 
d="M949 344h-659c-3 0 -5 -1 -5 -5v-199c0 -8 3 -16 9 -23c64 -66 151 -108 249 -108c105 0 198 48 262 121h58c-72 -85 -190 -141 -321 -141c-224 0 -406 163 -406 365s182 366 406 366c225 0 407 -164 407 -366v-10zM799 370v200c0 9 -3 17 -9 24
c-64 63 -151 104 -247 104c-97 0 -184 -42 -248 -107c-7 -7 -10 -16 -10 -25v-196c0 -2 2 -7 5 -7h505c3 0 4 5 4 7z" />
    <glyph glyph-name="partialdiff" unicode="&#x2202;" horiz-adv-x="552" 
d="M196 672l-19 64c37 26 94 57 178 57c134 0 241 -123 205 -382c-34 -241 -151 -419 -324 -419c-132 0 -178 121 -162 235c22 159 135 259 249 259c90 0 136 -63 148 -92h1c3 11 6 30 7 42c24 166 -41 285 -143 285c-62 0 -108 -26 -140 -49zM254 65h1
c90 0 166 121 196 247c-7 41 -49 104 -123 104c-79 0 -155 -87 -169 -190c-13 -93 23 -161 95 -161z" />
    <glyph glyph-name="product" unicode="&#x220f;" horiz-adv-x="802" 
d="M777 626h-108v-723h-85v723h-266v-723h-86v723h-107v79h652v-79z" />
    <glyph glyph-name="summation" unicode="&#x2211;" horiz-adv-x="653" 
d="M632 -97h-510v57l263 343l-252 341v61h483v-75h-364v-3l232 -310l-252 -329v-3h400v-82z" />
    <glyph glyph-name="uni2219" unicode="&#x2219;" horiz-adv-x="278" 
d="M116 303c5 36 39 66 75 66s62 -30 57 -66s-40 -66 -76 -66s-61 30 -56 66z" />
    <glyph glyph-name="radical" unicode="&#x221a;" horiz-adv-x="678" 
d="M680 840l-222 -989h-75l-157 463l-75 -29l-16 52l144 57l122 -363c7 -26 14 -56 18 -76h2c3 19 8 49 14 78l182 807h63z" />
    <glyph glyph-name="infinity" unicode="&#x221e;" horiz-adv-x="842" 
d="M792 293v-1c0 -100 -75 -163 -155 -163c-62 0 -113 36 -183 118c-52 -61 -107 -118 -189 -118c-81 0 -151 68 -151 159c0 94 68 162 159 162c75 0 132 -54 185 -118c49 56 101 118 186 118c88 0 148 -64 148 -157zM273 182h1c62 0 110 59 151 104
c-44 55 -87 113 -158 113c-62 0 -98 -51 -98 -112c0 -58 42 -105 104 -105zM639 399h-2c-65 0 -117 -72 -152 -108c66 -74 102 -109 156 -109c62 0 97 55 97 106c0 69 -42 111 -99 111z" />
    <glyph glyph-name="integral" unicode="&#x222b;" horiz-adv-x="469" 
d="M451 851l-13 -61c-9 6 -23 10 -36 10c-18 0 -38 -7 -51 -24c-24 -30 -32 -85 -32 -178c0 -160 13 -334 13 -503c0 -105 -18 -167 -41 -203c-23 -40 -65 -57 -106 -57c-28 0 -56 9 -68 16l13 63c9 -4 26 -11 45 -11c17 0 35 7 46 22c19 26 33 70 33 170
c0 170 -14 348 -14 511c0 112 15 175 55 217c26 28 63 41 99 41c22 0 46 -7 57 -13z" />
    <glyph glyph-name="approxequal" unicode="&#x2248;" horiz-adv-x="621" 
d="M543 439l34 -30c-28 -55 -70 -98 -130 -98c-41 0 -69 15 -116 42c-31 18 -59 34 -92 34c-46 0 -73 -36 -98 -74l-35 30c30 58 80 97 139 97c49 0 84 -25 111 -40c36 -20 58 -35 93 -35c40 0 66 27 94 74zM543 264l34 -30c-28 -54 -69 -97 -130 -97c-41 0 -69 15 -116 42
c-31 18 -59 34 -92 34c-47 0 -73 -36 -98 -75l-35 30c30 59 81 98 139 98c50 0 84 -25 111 -40c33 -18 58 -36 93 -36c41 0 66 27 94 74z" />
    <glyph glyph-name="notequal" unicode="&#x2260;" horiz-adv-x="634" 
d="M475 510l-43 -97h152v-54h-174l-65 -145h239v-54h-261l-53 -117l-43 19l45 98h-147v54h169l65 145h-234v54h255l52 115z" />
    <glyph glyph-name="lessequal" unicode="&#x2264;" horiz-adv-x="646" 
d="M593 98l-451 226v58l450 226v-65l-393 -188v-2l394 -190v-65zM596 2h-459v56h459v-56z" />
    <glyph glyph-name="greaterequal" unicode="&#x2265;" horiz-adv-x="646" 
d="M143 608l451 -226v-58l-451 -226v65l393 189v2l-393 189v65zM595 2h-458v56h458v-56z" />
    <glyph glyph-name="lozenge" unicode="&#x25ca;" horiz-adv-x="678" 
d="M625 352l-202 -398h-70l-198 398l201 399h71zM546 350l-136 273c-7 17 -15 40 -19 55h-3c-4 -16 -11 -36 -19 -55l-136 -269l137 -275c9 -21 15 -41 18 -53h4c3 13 11 39 17 52z" />
    <glyph glyph-name="uni00A0" unicode="&#xa0;" horiz-adv-x="278" 
 />
    <glyph glyph-name="uni00AD" unicode="&#xad;" horiz-adv-x="316" 
d="M321 284l-12 -84h-246l12 84h246z" />
    <glyph glyph-name="uni02C9" unicode="&#x2c9;" horiz-adv-x="240" 
d="M358 666l-10 -66h-288l10 66h288z" />
    <glyph glyph-name="uni03A9" unicode="&#x3a9;" horiz-adv-x="716" 
d="M203 71v3c-60 63 -109 169 -89 308c27 194 175 334 348 334c182 0 270 -160 246 -329c-20 -143 -102 -255 -178 -313v-3h148l-10 -71h-245l7 53c80 48 166 156 189 317c17 131 -33 273 -169 273c-129 0 -229 -121 -250 -276c-22 -150 33 -268 99 -314l-7 -53h-246l10 71
h147z" />
    <glyph glyph-name="uni2215" unicode="&#x2215;" horiz-adv-x="167" 
d="M433 708l-543 -740l-56 32l543 740z" />
    </font>
</defs>
</svg>
